<?xml version="1.0" standalone="no"?>
<!DOCTYPE svg PUBLIC "-//W3C//DTD SVG 1.1//EN" "http://www.w3.org/Graphics/SVG/1.1/DTD/svg11.dtd" >
<svg xmlns="http://www.w3.org/2000/svg">
<metadata>
This is a custom SVG webfont generated by Font Squirrel.
Copyright   : Font data copyright Punchcut 2009
Designer    : Punchcut
Foundry URL : Punchcutcom
</metadata>
<defs>
<font id="AmbleLightItalic" horiz-adv-x="1160" >
<font-face units-per-em="2048" ascent="1548" descent="-500" />
<missing-glyph horiz-adv-x="488" />
<glyph unicode=" "  horiz-adv-x="488" />
<glyph unicode="&#x09;" horiz-adv-x="488" />
<glyph unicode="&#xa0;" horiz-adv-x="488" />
<glyph unicode="!" horiz-adv-x="559" d="M115 0l19 126h155l-18 -126h-156zM183 384l141 976h131l-142 -976h-130z" />
<glyph unicode="&#x22;" horiz-adv-x="550" d="M119 950l45 410h150l-116 -420zM375 950l45 410h152l-118 -420z" />
<glyph unicode="#" horiz-adv-x="1288" d="M52 344l16 110h247l120 436h-254l16 110h268l99 360h127l-98 -360h284l98 360h129l-99 -360h242l-16 -110h-256l-118 -436h259l-16 -110h-273l-93 -344h-130l94 344h-284l-93 -344h-131l94 344h-232zM444 454h284l118 436h-284z" />
<glyph unicode="$" d="M76 48l42 108q39 -14 77.5 -26t82 -21t93.5 -14t112 -5q66 0 124.5 16.5t103.5 48.5t74 79t35 108q6 57 -13.5 101t-61 78.5t-101.5 62t-133 50.5q-71 22 -131.5 53.5t-104.5 73.5t-69.5 94.5t-25.5 117.5q0 9 0.5 18t1.5 19q9 81 41.5 146t85.5 112t126 75t162 35 l24 218h130l-24 -220q96 -8 167.5 -29t112.5 -37l-49 -108q-32 13 -64.5 25t-70.5 21.5t-84 15.5t-105 6q-72 0 -128.5 -17.5t-97 -50.5t-65 -79t-30.5 -103q-1 -8 -1.5 -15t-0.5 -15q0 -41 14.5 -77.5t46 -68t82 -59t121.5 -51.5q91 -31 162 -65.5t119 -76t73 -92.5 t25 -114q0 -9 -0.5 -18.5t-1.5 -19.5q-8 -74 -38.5 -134.5t-79.5 -106.5t-115 -76t-145 -43l-27 -248h-131l27 240q-57 1 -111.5 7t-102.5 15t-87.5 20.5t-65.5 25.5z" />
<glyph unicode="%" horiz-adv-x="1716" d="M249 1015q0 14 1.5 29.5t3.5 31.5q11 73 39.5 130t71.5 95.5t99.5 58.5t123.5 20q56 0 102.5 -16.5t79.5 -48t51 -77.5t18 -104q0 -14 -1 -28.5t-3 -29.5q-11 -74 -40.5 -131t-73 -95.5t-100 -58t-121.5 -19.5q-58 0 -104.5 16.5t-79 47.5t-50 76t-17.5 103zM266 0 l1102 1360h103l-1098 -1360h-107zM382 1036q0 -68 34.5 -111t99.5 -43q34 0 66 15t57 41.5t42 61.5t23 76q3 21 3 40q0 69 -36 111.5t-99 42.5q-36 0 -67.5 -15t-56 -41.5t-41 -62t-22.5 -75.5q-3 -21 -3 -40zM901 225q0 14 1 28.5t3 30.5q11 73 39.5 130t72 95.5t100 58.5 t122.5 20q57 0 103.5 -16.5t79.5 -48t51 -76.5t18 -103q0 -14 -1.5 -29t-3.5 -31q-11 -74 -39.5 -131t-72 -95.5t-100 -58t-123.5 -19.5q-57 0 -103.5 16.5t-79 47.5t-50 76.5t-17.5 104.5zM1033 245q0 -34 9 -62.5t26.5 -49t42 -32t56.5 -11.5q35 0 66.5 15t57 41.5 t42.5 61.5t23 76q3 19 3 38q0 34 -9.5 62.5t-27 49.5t-42.5 32.5t-57 11.5q-35 0 -66.5 -15t-56 -41.5t-41.5 -62t-23 -75.5q-3 -21 -3 -39z" />
<glyph unicode="&#x26;" horiz-adv-x="1324" d="M65 292v20q0 9 2 20q8 71 40 128t83 107t119 96.5t147 96.5l-59 74q-26 31 -44 59t-28.5 53.5t-15 50.5t-4.5 51q0 10 0.5 19.5t1.5 20.5q7 67 37.5 121.5t78 92t110.5 58t137 20.5q64 0 117.5 -17t91.5 -49.5t59.5 -78t21.5 -102.5q0 -8 -0.5 -16.5t-1.5 -16.5 q-6 -51 -30 -93t-62 -79.5t-88.5 -74.5t-109.5 -77q-11 -8 -22.5 -15t-22.5 -15l329 -407q50 56 91.5 114.5t76.5 114.5l75 -72q-40 -65 -84 -125t-93 -114l161 -199l-99 -78l-152 189q-99 -87 -213.5 -138t-242.5 -51q-87 0 -161 21t-129 61t-86 98t-31 132zM197 332 q-6 -52 14 -96t59 -76.5t94.5 -51t121.5 -18.5q109 0 203 45t174 115l-343 429q-62 -39 -118 -76t-99 -77.5t-71 -87t-35 -106.5zM438 1090q-3 -29 1.5 -55.5t13 -50.5t19.5 -44t22 -34l64 -80q20 13 40.5 26.5t41.5 27.5q40 26 72.5 48t56.5 46.5t38.5 55t19.5 72.5 q4 34 -9.5 65t-38.5 53.5t-58.5 36t-69.5 13.5q-42 0 -78.5 -12.5t-65 -36t-47 -56.5t-22.5 -75z" />
<glyph unicode="'" horiz-adv-x="341" d="M137 970l43 390h144l-94 -400z" />
<glyph unicode="(" horiz-adv-x="675" d="M143 411q0 37 1.5 74t6.5 75q16 146 57.5 283.5t101 260.5t133.5 227t155 183l89 -60q-60 -66 -124 -154t-120.5 -199t-99.5 -246t-61 -295q-9 -87 -9 -167q0 -122 19 -225t49 -189t67.5 -156t74.5 -125l-101 -60q-52 80 -95.5 168.5t-75.5 185.5t-50 201.5t-18 217.5z " />
<glyph unicode=")" horiz-adv-x="679" d="M-3 -302q60 66 125 153.5t122 198.5t100.5 246t61.5 296q5 44 7.5 85.5t2.5 81.5q0 122 -19.5 225t-50.5 189t-69 155.5t-75 125.5l102 60q120 -156 181.5 -342.5t61.5 -404.5q0 -43 -2.5 -86.5t-7.5 -88.5q-16 -146 -57.5 -283.5t-101 -260.5t-133.5 -227t-155 -183z " />
<glyph unicode="*" horiz-adv-x="952" d="M137 1060l81 134l272 -164l7 5l23 345h142l-78 -344l4 -3l322 177l44 -128l-341 -132l-7 -13l203 -262l-123 -87l-155 298h-9l-236 -310l-105 84l269 271l-5 15z" />
<glyph unicode="+" horiz-adv-x="984" d="M93 484l16 110h314l46 316h131l-46 -316h321l-16 -110h-321l-46 -318h-131l46 318h-314z" />
<glyph unicode="," horiz-adv-x="478" d="M5 -232l124 390h140l-176 -404z" />
<glyph unicode="-" horiz-adv-x="762" d="M108 586l18 120h543l-17 -120h-544z" />
<glyph unicode="." horiz-adv-x="573" d="M146 0l19 132h146l-19 -132h-146z" />
<glyph unicode="/" horiz-adv-x="809" d="M-62 -140l774 1500h126l-775 -1500h-125z" />
<glyph unicode="0" d="M109 475q0 90 15 195q24 166 73.5 298t121.5 223.5t166 140t209 48.5q94 0 165.5 -36t120.5 -103t74 -162.5t25 -214.5q0 -91 -15 -194q-24 -167 -73.5 -295.5t-122 -216.5t-167.5 -133t-210 -45q-93 0 -164.5 33t-119.5 96.5t-73 155.5t-25 210zM239 472q0 -182 66 -282 t202 -100q80 0 149.5 41t125 117t94.5 183t58 239q15 102 15 190q0 95 -17 171t-51 129t-85 81.5t-118 28.5q-82 0 -151.5 -44.5t-123.5 -124t-91.5 -189.5t-56.5 -242q-8 -54 -12 -103.5t-4 -94.5z" />
<glyph unicode="1" d="M170 0l16 110h336l161 1110l-353 -82l16 110l416 112h72l-181 -1250h319l-16 -110h-786z" />
<glyph unicode="2" d="M89 0l5 36q14 96 36.5 172t56 137t77.5 110t101 92t127 82t156 81q68 34 118 70.5t84 75.5t53 80.5t25 85.5q3 21 3 41q0 96 -68 151.5t-189 55.5q-53 0 -103 -9.5t-98 -25.5t-93.5 -37t-88.5 -44l-34 94q34 21 81.5 44t103.5 42.5t119.5 32.5t128.5 13q85 0 153.5 -21 t117 -60.5t75 -96t26.5 -128.5q0 -14 -1.5 -29t-3.5 -31q-11 -80 -47 -140t-88.5 -108t-117 -86.5t-133.5 -73.5q-88 -45 -161 -91.5t-128.5 -104t-93 -130.5t-53.5 -170h719l-16 -110h-849z" />
<glyph unicode="3" d="M61 72l64 88q34 -15 67.5 -28t69.5 -22t77 -14.5t89 -5.5q79 0 150 16.5t126.5 50t92 84.5t46.5 119q2 13 3 25.5t1 23.5q0 61 -23.5 105t-65.5 72t-100.5 41t-128.5 13h-175l16 110h175q66 0 124.5 15.5t105 47.5t77 81t40.5 116q2 13 3 25.5t1 23.5q0 58 -22.5 98.5 t-63 65.5t-95.5 36t-121 11q-87 0 -159 -21.5t-143 -54.5l-44 88q34 23 79.5 41.5t96 31t103.5 19t102 6.5q93 0 166.5 -21.5t125 -62t78.5 -98.5t27 -132q0 -15 -1.5 -30t-3.5 -32q-16 -112 -84 -189.5t-180 -117.5q108 -35 164.5 -106.5t56.5 -171.5q0 -13 -1 -26t-3 -27 q-13 -89 -57.5 -160.5t-116 -121.5t-168 -77t-212.5 -27q-51 0 -103 6t-99.5 18t-88 29t-68.5 39z" />
<glyph unicode="4" d="M23 314l11 76l804 970h163l-136 -936h210l-16 -110h-210l-45 -314h-131l46 314h-696zM206 424h529l114 785z" />
<glyph unicode="5" d="M69 66l59 100q30 -17 63 -30.5t71.5 -24t85 -16t103.5 -5.5q182 0 288 78.5t131 251.5q2 13 3 25.5t1 24.5q0 64 -25.5 111t-69.5 78t-104 46t-129 15q-74 0 -148.5 -12t-134.5 -38l-96 40l197 650h702l-16 -110h-607l-142 -455q60 17 136.5 26t170.5 9t168 -23.5 t125 -67t78 -106t27 -141.5q0 -17 -1 -35t-4 -37q-14 -98 -57.5 -179t-114 -139t-166 -90t-214.5 -32q-61 0 -117.5 7t-105.5 19t-89 27.5t-68 32.5z" />
<glyph unicode="6" d="M112 470q0 76 12 160q25 175 83 314.5t143.5 236t197 148t245.5 51.5q54 0 98 -5t80.5 -14t66 -21t53.5 -26l-54 -96q-54 26 -113.5 39t-135.5 13q-95 0 -179.5 -35.5t-153.5 -110.5t-119.5 -191t-76.5 -276q41 48 90.5 84t103.5 61t110 37.5t110 12.5q96 0 166.5 -23.5 t116.5 -67t68.5 -104.5t22.5 -137q0 -21 -1.5 -43t-5.5 -45q-12 -85 -53.5 -166.5t-107.5 -145t-155 -102t-198 -38.5q-102 0 -179.5 34.5t-129.5 98.5t-78.5 154.5t-26.5 202.5zM241 459q0 -191 82.5 -280t241.5 -89q70 0 129 28.5t103.5 76t73.5 108t38 125.5q6 39 6 74 q0 54 -14 98t-43.5 75.5t-76 49t-112.5 17.5q-47 0 -100 -9t-108.5 -31.5t-110.5 -60t-105 -94.5q-2 -23 -3 -45t-1 -43z" />
<glyph unicode="7" d="M207 1240l17 120h928l-17 -112l-732 -1248h-134l728 1240h-790z" />
<glyph unicode="8" d="M64 304q0 15 1.5 30t3.5 32q9 60 34.5 111.5t66 93.5t95 74t119.5 52q-88 33 -134 97t-46 156q0 14 1 28t3 28q13 91 52.5 161t102 117t144.5 71.5t181 24.5q87 0 159 -21t124 -61t80.5 -98t28.5 -133q0 -14 -1.5 -29.5t-3.5 -31.5q-17 -118 -90 -194.5t-188 -114.5 q110 -37 170.5 -111t60.5 -174q0 -22 -3 -46q-14 -96 -59.5 -168t-116 -120.5t-163.5 -73t-201 -24.5q-95 0 -172.5 21t-133 62.5t-85.5 102t-30 138.5zM196 320q0 -57 22 -100.5t61.5 -72t96 -43t125.5 -14.5q74 0 141 18t119.5 53t87.5 86.5t45 118.5q3 19 3 37 q0 54 -23 98t-65 75.5t-100 48.5t-128 17q-74 0 -139.5 -20.5t-116.5 -57.5t-84 -87.5t-42 -110.5q-3 -24 -3 -46zM335 961q0 -103 70.5 -156t191.5 -53q64 0 123 17t106 49.5t78.5 79.5t40.5 108q3 22 3 43q0 54 -20.5 95.5t-57.5 69.5t-87.5 42t-110.5 14 q-65 0 -121.5 -17.5t-101 -51.5t-73.5 -83t-38 -112q-3 -24 -3 -45z" />
<glyph unicode="9" d="M120 46l48 102q57 -27 124 -42.5t152 -15.5q80 0 155 34t137 105.5t108.5 182t70.5 263.5q-79 -77 -183 -117t-219 -40q-80 0 -145 26.5t-111.5 73.5t-72 112t-25.5 142q0 17 1.5 33t3.5 33q12 84 54 164t108 141.5t155 99t196 37.5q92 0 164 -27.5t122 -85t76 -146.5 t26 -213q0 -50 -4 -104.5t-13 -115.5q-24 -165 -78.5 -296t-133.5 -222.5t-180.5 -140.5t-218.5 -49q-59 0 -106 5t-85 14t-68.5 21t-57.5 26zM288 861q0 -52 12.5 -95t40 -73.5t70.5 -47.5t103 -17q50 0 103.5 8t107 28.5t105.5 55t100 87.5q3 31 4 58.5t1 53.5 q0 105 -21.5 173t-61 107.5t-95.5 55t-125 15.5q-68 0 -125.5 -27.5t-101.5 -74t-72.5 -107t-38.5 -125.5q-6 -39 -6 -75z" />
<glyph unicode=":" horiz-adv-x="587" d="M235 706l19 132h146l-19 -132h-146zM135 0l19 132h146l-19 -132h-146z" />
<glyph unicode=";" horiz-adv-x="563" d="M5 -232l124 390h140l-176 -404zM211 716l19 132h146l-19 -132h-146z" />
<glyph unicode="&#x3c;" horiz-adv-x="1040" d="M87 440l17 118l871 348l-19 -134l-728 -274l649 -274l-20 -132z" />
<glyph unicode="=" horiz-adv-x="1202" d="M103 362l16 110h927l-16 -110h-927zM152 704l16 110h928l-16 -110h-928z" />
<glyph unicode="&#x3e;" horiz-adv-x="1040" d="M37 92l19 134l728 274l-648 274l19 132l770 -348l-17 -118z" />
<glyph unicode="?" horiz-adv-x="1001" d="M185 1238q32 22 76.5 46t98 44t113.5 33t123 13q83 0 149.5 -19t112.5 -54.5t70.5 -86.5t24.5 -115q0 -12 -1 -24.5t-3 -26.5q-11 -72 -48.5 -129.5t-88 -105.5t-107.5 -88t-106 -77q-28 -22 -47 -48.5t-33 -61.5t-23.5 -79.5t-17.5 -102.5h-130q11 79 28.5 139t43.5 107 t62.5 85.5t85.5 76.5q51 37 94.5 69t75.5 64t53 67t27 78q3 21 3 42q0 41 -14 74t-44 56.5t-77 36.5t-114 13q-51 0 -97.5 -10t-89.5 -26.5t-83 -38t-79 -45.5zM279 0l23 158h155l-23 -158h-155z" />
<glyph unicode="@" horiz-adv-x="1801" d="M85 204q0 60 7 123.5t21 132.5q35 211 120 381.5t208.5 290t278.5 184t331 64.5q150 0 268 -43.5t199 -125t123.5 -198.5t42.5 -265q0 -54 -6 -110t-17 -116q-12 -63 -32.5 -128t-51.5 -125.5t-72 -113t-92.5 -91.5t-115 -61.5t-138.5 -22.5q-65 0 -106.5 43.5 t-46.5 121.5q-57 -82 -130.5 -123.5t-169.5 -41.5q-50 0 -89 18t-66.5 52t-42 82.5t-14.5 108.5q0 74 22 159q30 121 78.5 219.5t108.5 168t126.5 107t132.5 37.5q63 0 109.5 -8.5t82.5 -23.5t65.5 -34t60.5 -40l-123 -544q-12 -57 -12 -94q0 -30 6.5 -49t17.5 -30t25 -15 t29 -4q56 0 105 33.5t88.5 92t68.5 137t45 169.5q12 66 18.5 125.5t6.5 115.5q0 120 -31 214.5t-95 159.5t-163 99t-235 34q-147 0 -275 -55.5t-230.5 -160t-175 -254.5t-106.5 -340q-26 -133 -26 -242q0 -130 34 -231t99 -170.5t161 -106t220 -36.5q48 0 100.5 6.5 t104 18.5t99 28t86.5 35l-5 -112q-40 -22 -89.5 -38t-103.5 -26.5t-109 -16t-105 -5.5q-146 0 -262 43.5t-196.5 126t-123.5 201.5t-43 269zM626 251q0 -75 29 -118t87 -43q35 0 71.5 12t73.5 39.5t73 71t70 106.5l103 468q-29 15 -66 25t-84 10q-124 0 -205 -107.5 t-130 -314.5q-11 -42 -16.5 -79.5t-5.5 -69.5z" />
<glyph unicode="A" horiz-adv-x="1319" d="M8 0l690 1360h142l301 -1360h-137l-90 422h-558l-212 -422h-136zM411 532h479l-142 667z" />
<glyph unicode="B" horiz-adv-x="1250" d="M117 0l198 1360h349q99 0 176 -22t130 -62t80.5 -97t27.5 -127q0 -14 -1 -28t-3 -28q-8 -57 -27 -102t-44 -79.5t-53.5 -60t-55.5 -43.5q87 -29 136.5 -98t49.5 -170q0 -14 -1 -28.5t-3 -30.5q-13 -89 -56 -160t-112.5 -121t-164 -76.5t-210.5 -26.5h-416zM264 110h263 q82 0 154 15.5t127 47.5t90.5 82t45.5 119q2 14 3 27t1 26q0 56 -19.5 97.5t-54.5 69t-83.5 41t-106.5 13.5h-342zM358 758h433q17 16 40 36t45.5 48.5t41.5 69t27 98.5q3 21 3 40q0 54 -23 92t-65 62t-102 35t-135 11h-194z" />
<glyph unicode="C" d="M128 540q0 34 3 69.5t8 72.5q24 163 84.5 292.5t151 219.5t207.5 138t254 48q99 0 169 -22t117 -49l-58 -95q-48 26 -113.5 41t-137.5 15q-98 0 -186.5 -34t-160.5 -105.5t-123 -183t-73 -265.5q-12 -83 -12 -153q0 -117 30.5 -200t85.5 -136.5t132 -78t170 -24.5 q43 0 83 6.5t75.5 16t65 20.5t52.5 21l24 -92q-55 -35 -139.5 -58.5t-191.5 -23.5q-119 0 -215 39.5t-163 112.5t-103 176.5t-36 231.5z" />
<glyph unicode="D" horiz-adv-x="1354" d="M117 0l198 1360h383q126 0 227 -38.5t172 -110t109.5 -173.5t38.5 -228q0 -62 -9 -128q-23 -158 -86 -284.5t-159 -215t-221 -135.5t-270 -47h-383zM264 110h233q111 0 211.5 33.5t181.5 103.5t137 178t78 257q5 38 8 72t3 66q0 115 -33 197t-93 133.5t-143.5 75.5 t-184.5 24h-233z" />
<glyph unicode="E" horiz-adv-x="1055" d="M117 0l198 1360h743l-16 -110h-613l-71 -492h548l-16 -110h-548l-78 -538h612l-16 -110h-743z" />
<glyph unicode="F" horiz-adv-x="966" d="M117 0l198 1360h701l-16 -110h-571l-71 -492h505l-16 -110h-505l-94 -648h-131z" />
<glyph unicode="G" horiz-adv-x="1367" d="M131 567q0 28 1.5 56t6.5 57q25 172 93 303t171 219t238.5 133t295.5 45q51 0 95 -5.5t80 -14.5t64 -19t47 -19l-48 -106q-45 18 -107 36t-143 18q-123 0 -232 -35t-196 -107.5t-146 -184t-81 -263.5q-4 -25 -5.5 -49.5t-1.5 -48.5q0 -101 30.5 -190.5t87.5 -156.5 t139 -106t184 -39q36 0 74.5 2t76.5 6.5t74 12.5t67 19l62 424h-349l16 110h479l-86 -596q-101 -41 -206 -64.5t-224 -23.5q-129 0 -232 45.5t-175 125t-111 186.5t-39 230z" />
<glyph unicode="H" horiz-adv-x="1374" d="M117 0l198 1360h130l-91 -626h717l91 626h131l-197 -1360h-131l91 624h-718l-90 -624h-131z" />
<glyph unicode="I" horiz-adv-x="821" d="M60 0l16 110h202l166 1140h-203l16 110h526l-16 -110h-193l-165 -1140h193l-16 -110h-526z" />
<glyph unicode="J" horiz-adv-x="949" d="M3 58l72 98q20 -12 48 -24t59 -21t62 -15t57 -6q61 0 110 16t86.5 51t62 90.5t35.5 134.5l142 978h131l-141 -972q-18 -121 -57 -200t-96 -125t-130 -64.5t-159 -18.5q-88 0 -162 24t-120 54z" />
<glyph unicode="K" horiz-adv-x="1248" d="M117 0l198 1360h130l-90 -622h196l522 622h167l-574 -674h-2l452 -686h-173l-406 628h-198l-91 -628h-131z" />
<glyph unicode="L" horiz-adv-x="1036" d="M117 0l198 1360h130l-181 -1250h647l-16 -110h-778z" />
<glyph unicode="M" horiz-adv-x="1673" d="M117 0l198 1360h166l368 -721l577 721h165l-197 -1360h-130l174 1206l-557 -702h-102l-356 705l-175 -1209h-131z" />
<glyph unicode="N" horiz-adv-x="1422" d="M117 0l198 1360h130l601 -1145l166 1145h131l-197 -1360h-131l-604 1126l-163 -1126h-131z" />
<glyph unicode="O" horiz-adv-x="1380" d="M127 526q0 37 2.5 75t8.5 79q24 166 83 296t145 220t194.5 137t231.5 47q105 0 193.5 -38.5t153 -110.5t101 -175t36.5 -233q0 -34 -3 -69.5t-8 -73.5q-24 -167 -87 -297t-153 -219.5t-202 -136.5t-234 -47q-104 0 -189.5 37.5t-146 108t-93.5 171.5t-33 229zM256 514 q0 -110 25.5 -190t71.5 -132t110 -77t142 -25q90 0 175.5 36t157 109t123.5 184t74 261q12 82 12 153q0 114 -28 196.5t-77.5 136t-117.5 79t-148 25.5q-88 0 -170 -36t-149.5 -109t-116.5 -184t-71 -261q-7 -45 -10 -86.5t-3 -79.5z" />
<glyph unicode="P" horiz-adv-x="1178" d="M117 0l198 1360h372q105 0 187 -24.5t138.5 -69.5t86.5 -109t30 -143q0 -16 -1.5 -32.5t-3.5 -33.5q-14 -97 -58.5 -174t-115.5 -131t-167.5 -82.5t-215.5 -28.5h-242l-77 -532h-131zM341 642h219q87 0 161 18.5t131 56t93.5 95t47.5 136.5q2 16 3.5 30.5t1.5 28.5 q0 65 -24.5 111t-70 75.5t-110 43t-145.5 13.5h-219z" />
<glyph unicode="Q" horiz-adv-x="1350" d="M113 524q0 73 12 156q24 166 83 296t145 220t194 137t231 47q105 0 193.5 -38.5t153 -111t101 -176t36.5 -233.5q0 -34 -2.5 -69t-7.5 -72q-28 -191 -105.5 -330.5t-188.5 -230.5l233 -289h-156l-179 221q-65 -35 -135.5 -53t-145.5 -18q-104 0 -189.5 37t-146 107.5 t-93.5 171t-33 228.5zM242 515q0 -111 25.5 -191t71.5 -132t110 -77t142 -25q90 0 175.5 36t157 109t123.5 184t74 261q12 84 12 155q0 113 -28 195t-77.5 135.5t-117.5 79t-148 25.5q-88 0 -170 -36t-149.5 -109t-116.5 -184t-71 -261q-7 -45 -10 -86t-3 -79z" />
<glyph unicode="R" horiz-adv-x="1208" d="M117 0l198 1360h408q92 0 164.5 -20t123 -59t77 -95.5t26.5 -129.5q0 -15 -1.5 -31t-3.5 -33q-8 -56 -32.5 -107t-61 -94.5t-82 -79t-95.5 -59.5l186 -652h-134l-175 626h-376l-91 -626h-131zM355 736h438q28 19 57 40.5t55 50t45.5 68.5t27.5 97q2 14 3 27.5t1 26.5 q0 58 -21.5 97t-61 63t-96 34t-126.5 10h-248z" />
<glyph unicode="S" horiz-adv-x="1070" d="M66 48l43 108q38 -14 76.5 -26t82 -21t93.5 -14t112 -5q66 0 124.5 16.5t103.5 48.5t74 79t36 108q1 13 1 26q0 42 -15 75q-20 44 -61 78.5t-101.5 62t-133.5 50.5q-70 22 -130.5 53.5t-105 73.5t-70 95t-25.5 118q0 9 0.5 18t1.5 18q9 87 46 155.5t97 116t141.5 73 t181.5 25.5q60 0 114.5 -7.5t101 -18t83 -22.5t60.5 -22l-48 -108q-33 13 -65.5 25t-70.5 21.5t-84 15.5t-105 6q-72 0 -128.5 -17.5t-97 -50.5t-64.5 -79t-30 -103q-1 -8 -1.5 -15t-0.5 -15q0 -41 14.5 -77.5t46 -68t81.5 -59t121 -51.5q91 -31 162 -65.5t119 -76t73 -92.5 t25 -114q0 -9 -0.5 -18.5t-1.5 -19.5q-9 -86 -48.5 -154t-102.5 -115.5t-148 -73t-186 -25.5q-57 0 -115 5.5t-110.5 14.5t-95.5 21.5t-70 26.5z" />
<glyph unicode="T" horiz-adv-x="1204" d="M183 1250l16 110h1026l-16 -110h-441l-181 -1250h-131l181 1250h-454z" />
<glyph unicode="U" horiz-adv-x="1398" d="M170 328q0 17 1 34.5t4 35.5l140 962h130l-139 -962q-2 -14 -3 -27.5t-1 -26.5q0 -63 23 -110.5t65.5 -79.5t102 -48t131.5 -16q78 0 150 20.5t128.5 60t94.5 96.5t49 131l139 962h131l-139 -960q-15 -104 -63.5 -182.5t-123 -131t-172 -79.5t-210.5 -27q-99 0 -180 23 t-138.5 67t-88.5 109t-31 149z" />
<glyph unicode="V" horiz-adv-x="1298" d="M194 1360h142l175 -772l78 -401l189 393l401 780h144l-698 -1360h-127z" />
<glyph unicode="W" horiz-adv-x="1815" d="M222 1360h143l76 -1177l504 1177h147l160 -1171l417 1171h144l-507 -1360h-149l-174 1104l-502 -1104h-145z" />
<glyph unicode="X" horiz-adv-x="1142" d="M-11 0l499 689l-302 671h161l250 -579l417 579h161l-497 -671l300 -689h-164l-245 590l-417 -590h-163z" />
<glyph unicode="Y" horiz-adv-x="1136" d="M194 1360h146l232 -724l444 724h146l-543 -870l-71 -490h-130l70 484z" />
<glyph unicode="Z" horiz-adv-x="1262" d="M60 0l15 102l910 1148h-736l16 110h923l-11 -80l-946 -1170h853l-60 -110h-964z" />
<glyph unicode="[" horiz-adv-x="719" d="M186 -294l200 1818h291l-12 -110h-161l-175 -1598h160l-12 -110h-291z" />
<glyph unicode="\" horiz-adv-x="784" d="M158 1360h133l337 -1500h-131z" />
<glyph unicode="]" horiz-adv-x="730" d="M63 -294l12 110h162l175 1598h-161l12 110h291l-200 -1818h-291z" />
<glyph unicode="^" horiz-adv-x="888" d="M102 708l389 652h127l198 -652h-137l-145 503l-295 -503h-137z" />
<glyph unicode="_" horiz-adv-x="916" d="M-119 -198l16 110h917l-16 -110h-917z" />
<glyph unicode="`" horiz-adv-x="567" d="M191 1360l159 66l180 -280l-107 -34z" />
<glyph unicode="a" horiz-adv-x="1122" d="M101 298q0 52 9 112q19 136 69.5 248.5t120.5 192.5t154.5 124.5t172.5 44.5q46 0 81.5 -4.5t64 -14t53 -23t48.5 -31.5l40 53h83l-145 -1000h-123l13 136q-37 -37 -75.5 -66t-82.5 -49t-95 -30.5t-111 -10.5q-131 0 -204 81t-73 237zM232 309q0 -115 51 -167t157 -52 q41 0 82.5 12t82 33t79 50t73.5 62l90 621q-41 16 -92 29t-108 13q-70 0 -136 -35t-120.5 -100t-94 -157.5t-56.5 -207.5q-4 -28 -6 -53t-2 -48z" />
<glyph unicode="b" horiz-adv-x="1180" d="M114 0l203 1402h130l-69 -476q59 42 135 68t173 26q79 0 143 -28.5t109 -81t69.5 -127t24.5 -167.5q0 -54 -9 -114q-17 -121 -60.5 -218t-107 -164.5t-145 -103.5t-175.5 -36q-53 0 -96 7.5t-78.5 22.5t-65.5 36.5t-57 49.5l-38 -96h-86zM269 175q46 -34 106.5 -59.5 t129.5 -25.5q161 0 260.5 105.5t128.5 306.5q9 63 9 117q0 291 -279 291q-69 0 -137.5 -22.5t-122.5 -57.5z" />
<glyph unicode="c" horiz-adv-x="963" d="M117 399q0 25 2 50.5t6 52.5q18 121 63 217t114.5 163t162 102.5t203.5 35.5q90 0 154 -14t106 -40l-62 -98q-17 7 -35 14.5t-41.5 13.5t-54 10t-72.5 4q-76 0 -143 -23.5t-121 -73t-91 -127t-53 -184.5q-5 -30 -6.5 -57.5t-1.5 -52.5q0 -81 20.5 -138t58.5 -93.5 t92 -53.5t122 -17q83 0 148 16.5t113 37.5l37 -98q-51 -32 -125 -49t-171 -17q-101 0 -180 29.5t-133.5 84t-83 132t-28.5 173.5z" />
<glyph unicode="d" horiz-adv-x="1168" d="M136 378q0 29 2.5 60t7.5 64q18 121 58.5 217t101 163t140 102.5t174.5 35.5q50 0 90 -6t73.5 -17.5t61.5 -29t54 -40.5l68 473h131l-203 -1400h-131l11 73q-32 -23 -64 -40t-67.5 -29t-78 -18t-95.5 -6q-80 0 -142 28t-105 80t-65 125.5t-22 164.5zM266 370 q0 -140 63 -210t201 -70q69 0 136.5 22t122.5 57l96 662q-45 34 -105 56.5t-131 22.5q-162 0 -253 -104.5t-119 -303.5q-5 -36 -8 -69t-3 -63z" />
<glyph unicode="e" horiz-adv-x="1099" d="M112 378q0 54 9 114q19 129 62 227.5t108 165.5t150.5 101t189.5 34q73 0 134 -21t104.5 -61t67.5 -99.5t24 -135.5q0 -37 -6 -77l-16 -110h-683l-4 -24q-5 -29 -6.5 -56t-1.5 -52q0 -146 70.5 -220t213.5 -74q54 0 98.5 6.5t81 16t65.5 20.5t52 21l25 -102 q-63 -33 -149.5 -52.5t-182.5 -19.5q-199 0 -302.5 103.5t-103.5 294.5zM279 626h545q2 17 3.5 33.5t1.5 31.5q0 58 -16.5 99.5t-45 68t-66 39t-79.5 12.5q-59 0 -111.5 -14t-96.5 -47t-78 -87.5t-57 -135.5z" />
<glyph unicode="f" horiz-adv-x="741" d="M100 890l43 110h162l10 74q14 95 44.5 161t75.5 107t104.5 59.5t131.5 18.5q24 0 49.5 -2.5t50 -6.5t47 -9.5t39.5 -11.5l-18 -102q-29 8 -76.5 15t-93.5 7q-49 0 -86.5 -12.5t-64.5 -40.5t-45 -73t-27 -110l-11 -74h273l-16 -110h-273l-129 -890h-130l129 890h-189z" />
<glyph unicode="g" horiz-adv-x="1190" d="M119 -388l43 100q25 -7 61 -14.5t77 -14t84.5 -11t82.5 -4.5q62 0 111 12.5t84.5 41t58.5 75.5t33 117l27 188q-32 -28 -63.5 -50t-67 -37t-77.5 -23t-96 -8q-80 0 -142 27.5t-104.5 79t-65 124.5t-22.5 165q0 57 9 122q18 121 59 217t102 163t140 102.5t174 35.5 q51 0 90 -8t71 -23t58 -37t51 -50l14 98h131l-158 -1086q-16 -110 -51.5 -179.5t-88.5 -108.5t-122 -53.5t-150 -14.5q-51 0 -102.5 5t-98.5 12.5t-86.5 17t-65.5 19.5zM272 374q0 -142 63.5 -211t203.5 -69q69 0 133.5 23.5t119.5 58.5l94 652q-45 35 -101.5 58.5 t-127.5 23.5q-163 0 -254.5 -104.5t-120.5 -303.5q-5 -35 -7.5 -67t-2.5 -61z" />
<glyph unicode="h" horiz-adv-x="1172" d="M114 0l203 1400h130l-74 -511q81 65 172 98t189 33q141 0 205.5 -61.5t64.5 -192.5q0 -24 -2 -49.5t-6 -54.5l-96 -662h-131l96 662q6 43 6 79q0 48 -12 80.5t-34.5 52t-56.5 28t-77 8.5q-90 0 -175.5 -34t-157.5 -88l-114 -788h-130z" />
<glyph unicode="i" horiz-adv-x="559" d="M131 0l145 1000h131l-145 -1000h-131zM288 1244l23 158h169l-23 -158h-169z" />
<glyph unicode="j" horiz-adv-x="597" d="M-209 -397l29 105q15 -4 34.5 -7t40.5 -5.5t42.5 -4t40.5 -1.5q40 0 74 13t60 43t45 79.5t30 122.5l152 1052h131l-153 -1052q-17 -114 -48 -185.5t-76.5 -112t-105.5 -55.5t-134 -15q-42 0 -85.5 6t-76.5 17zM349 1244l23 158h169l-22 -158h-170z" />
<glyph unicode="k" horiz-adv-x="1068" d="M114 0l203 1400h130l-119 -822h109l417 422h155l-473 -474h-2l413 -526h-165l-362 468h-108l-68 -468h-130z" />
<glyph unicode="l" horiz-adv-x="559" d="M134 0l203 1400h130l-203 -1400h-130z" />
<glyph unicode="m" horiz-adv-x="1798" d="M114 0l145 1000h120l-7 -92q81 58 173 85t191 27q46 0 87.5 -6t75 -19.5t58 -35.5t38.5 -55q73 54 168 85t195 31q59 0 108.5 -12.5t85 -42.5t55 -81t19.5 -128q0 -24 -1.5 -51t-6.5 -57l-94 -648h-131l94 648q4 24 5.5 46t1.5 41q0 50 -11.5 83.5t-34 54t-55 29 t-74.5 8.5q-85 0 -162 -29t-144 -77q0 -16 -1 -33.5t-4 -36.5l-106 -734h-131l108 746q3 21 3 38q0 71 -48 98.5t-141 27.5q-44 0 -88 -9.5t-87 -26t-83.5 -39.5t-76.5 -50l-114 -785h-130z" />
<glyph unicode="n" horiz-adv-x="1172" d="M114 0l145 1000h120l-8 -113q81 66 172.5 99.5t190.5 33.5q141 0 205.5 -61.5t64.5 -192.5q0 -24 -2 -49.5t-6 -54.5l-96 -662h-131l96 662q6 43 6 79q0 48 -12 80.5t-34.5 52t-56.5 28t-77 8.5q-90 0 -175.5 -34t-157.5 -88l-114 -788h-130z" />
<glyph unicode="o" horiz-adv-x="1164" d="M115 384q0 54 9 116q18 124 62 221t110.5 163.5t154 101t191.5 34.5q88 0 161.5 -28.5t125.5 -82t81 -131t29 -175.5q0 -25 -2 -50.5t-6 -52.5q-18 -125 -66 -222t-119 -163t-161.5 -100.5t-193.5 -34.5q-88 0 -158 27.5t-118.5 79.5t-74 127t-25.5 170zM245 384 q0 -77 18.5 -132.5t52.5 -91.5t82.5 -53t108.5 -17q70 0 134 24.5t116.5 75t90 127.5t52.5 183q5 29 6.5 56t1.5 52q0 80 -20.5 137.5t-58 94t-89.5 53.5t-114 17q-69 0 -130 -24t-109.5 -74.5t-83 -128t-49.5 -183.5q-9 -63 -9 -116z" />
<glyph unicode="p" horiz-adv-x="1180" d="M56 -400l203 1400h113l-2 -79q33 24 65.5 42t69.5 31t81 19.5t100 6.5q80 0 144.5 -28t110 -80.5t70 -127.5t24.5 -169q0 -26 -1.5 -54t-6.5 -57q-18 -121 -61.5 -218t-108 -165t-146.5 -104.5t-176 -36.5t-161 22.5t-119 69.5l-69 -472h-130zM269 170 q43 -35 104.5 -57.5t131.5 -22.5q161 0 261.5 106.5t129.5 307.5q9 61 9 114q0 292 -281 292q-69 0 -137.5 -22.5t-122.5 -57.5z" />
<glyph unicode="q" horiz-adv-x="1168" d="M137 381q0 58 9 123q18 121 58.5 217t101 162.5t140 101.5t174.5 35q52 0 93.5 -6.5t76 -19.5t63.5 -32.5t56 -44.5l30 83h101l-203 -1400h-131l69 470q-32 -23 -64 -40t-68 -28t-78.5 -16.5t-94.5 -5.5q-80 0 -142 28t-104.5 80.5t-64.5 126.5t-22 166zM266 372 q0 -140 63 -211t201 -71q68 0 136.5 22t122.5 56l96 663q-45 34 -105 56.5t-131 22.5q-162 0 -253 -104t-119 -302q-5 -36 -8 -69t-3 -63z" />
<glyph unicode="r" horiz-adv-x="741" d="M114 0l145 1000h120l-12 -128q72 81 146.5 114.5t147.5 33.5q21 0 41.5 -1t43.5 -3l-37 -134q-26 5 -52 6.5t-59 1.5q-60 0 -124 -37.5t-120 -97.5l-110 -755h-130z" />
<glyph unicode="s" horiz-adv-x="957" d="M67 54l47 112q38 -16 72.5 -29.5t72.5 -24t82 -16.5t102 -6q51 0 93 12.5t72 34t48 51.5t22 66q1 11 1 21q0 27 -8 49q-11 30 -39 53.5t-73 42t-108 36.5q-67 19 -122.5 47.5t-94.5 64.5q-38 36 -58 80q-15 33 -15 69q0 11 1 23q7 67 37.5 119t80 88t116.5 54.5t148 18.5 q109 0 187 -20.5t121 -41.5l-42 -108q-30 11 -58.5 22t-61.5 19.5t-72.5 13.5t-91.5 5q-112 0 -168 -40.5t-64 -113.5q-3 -27 3.5 -54.5t28 -53t60 -47.5t100.5 -39q91 -25 155.5 -56.5t103.5 -68.5t55 -80q12 -33 11 -68q0 -11 -1 -23q-6 -59 -37.5 -111t-82.5 -91 t-119.5 -61.5t-148.5 -22.5q-53 0 -104.5 5.5t-97.5 15.5t-85.5 23.5t-67.5 29.5z" />
<glyph unicode="t" horiz-adv-x="794" d="M104 890l43 110h158l37 260l134 20l-41 -280h302l-16 -110h-302l-87 -604q-6 -41 -6 -72q0 -71 32 -97.5t97 -26.5q23 0 48.5 2t50.5 5t47 6.5t38 6.5l-5 -104q-37 -11 -91 -18.5t-104 -7.5q-58 0 -103.5 9t-77 32.5t-48.5 64.5t-17 105q0 21 2 44.5t6 50.5l88 604h-185z " />
<glyph unicode="u" horiz-adv-x="1172" d="M154 226q0 49 9 112l96 662h130l-96 -662q-4 -25 -5.5 -46.5t-1.5 -41.5q0 -45 10 -76t30.5 -49.5t52 -26.5t74.5 -8q86 0 176 34t171 88l114 788h131l-145 -1000h-131l17 117q-85 -66 -180.5 -101.5t-193.5 -35.5q-60 0 -108 11.5t-81.5 40t-51 76t-17.5 118.5z" />
<glyph unicode="v" horiz-adv-x="992" d="M116 1000h146l124 -594l47 -250l134 252l297 592h130l-531 -1000h-109z" />
<glyph unicode="w" horiz-adv-x="1500" d="M134 1000h149l73 -809l414 809h78l176 -806l312 806h149l-427 -1000h-107l-173 756l2 42l-10 -42l-395 -756h-107z" />
<glyph unicode="x" horiz-adv-x="1031" d="M10 0l430 502l-287 498h152l212 -389l322 389h150l-427 -498v-1v-4l280 -497h-144l-212 396l-330 -396h-146z" />
<glyph unicode="y" horiz-adv-x="1020" d="M-13 -394l31 106q4 0 14.5 -2t23.5 -4t25 -4t18 -2q38 0 66.5 10t55.5 37t57 76t71 127l-211 1050h134l162 -880l430 880h134l-526 -1050h2q-49 -106 -91.5 -175.5t-87.5 -110.5t-95.5 -57.5t-114.5 -16.5q-26 0 -53 4t-45 12z" />
<glyph unicode="z" horiz-adv-x="1140" d="M119 0l15 116l727 774h-608l16 110h775l-15 -102l-754 -788h677l-42 -110h-791z" />
<glyph unicode="{" horiz-adv-x="721" d="M99 542l12 102q40 0 78.5 10.5t70 38.5t53.5 76t30 123l25 220q12 112 34 193.5t59.5 134.5t93 78.5t135.5 25.5l4 -76q-82 0 -129 -86t-67 -270l-24 -220q-8 -72 -26 -123.5t-46.5 -87t-68 -56.5t-89.5 -32q84 -20 126 -73t42 -156q0 -17 -1 -34t-3 -36l-30 -272 q-9 -83 -9 -144q0 -111 30.5 -161.5t96.5 -50.5l-21 -76q-64 0 -108.5 18t-73 54.5t-41.5 91t-13 128.5q0 63 9 140l30 272q3 31 3 59q0 58 -14.5 95t-39 58t-58 28.5t-70.5 7.5z" />
<glyph unicode="|" horiz-adv-x="409" d="M12 -300l265 1824h130l-264 -1824h-131z" />
<glyph unicode="}" horiz-adv-x="721" d="M34 -334q82 0 138 87t76 269l24 220q8 72 24 123.5t42 86.5t62 56.5t84 32.5q-77 18 -114 69.5t-37 150.5q0 18 1.5 37.5t3.5 41.5l30 272q4 34 5.5 64t1.5 57q0 124 -36.5 179.5t-106.5 55.5l22 76q129 0 190 -77.5t61 -235.5q0 -27 -1.5 -57t-5.5 -62l-30 -272 q-2 -19 -3 -36t-1 -33q0 -55 12 -90t33.5 -54.5t51.5 -27t67 -7.5l-11 -102q-41 0 -76.5 -10.5t-63.5 -38.5t-47.5 -76t-27.5 -123l-24 -220q-12 -112 -37.5 -193.5t-66.5 -134.5t-99 -78.5t-136 -25.5z" />
<glyph unicode="~" horiz-adv-x="1386" d="M98 410q22 79 63 132.5t89 85t99 45t95 13.5q50 0 89 -9.5t73.5 -26t66.5 -39.5t67 -51q52 -41 105 -63.5t99 -22.5q23 0 51.5 7t58 28t56.5 58.5t48 98.5l106 -28q-23 -79 -63 -131.5t-87.5 -84t-96.5 -45t-90 -13.5q-51 0 -91.5 9t-75.5 25.5t-67 39t-66 50.5 q-51 42 -101.5 65t-104.5 23q-24 0 -52 -7.5t-56.5 -28.5t-55.5 -59t-48 -99z" />
<glyph unicode="&#xa1;" horiz-adv-x="585" d="M621.007 1000l-18.999 -125.992h-154.99l17.999 125.992h155.99zM553.011 616.023l-140.991 -975.94h-130.992l141.992 975.94h129.991z" />
<glyph unicode="&#xa2;" d="M105 395q0 26 2 52.5t6 54.5q16 112 56 202t100.5 155.5t140.5 105.5t177 51l26 176h130l-25 -174q66 -5 115 -18t84 -34l-62 -98q-17 7 -35 14.5t-41.5 13.5t-54 10t-72.5 4q-76 0 -143.5 -23.5t-121 -73t-91 -127t-52.5 -184.5q-9 -60 -9 -111q0 -80 20.5 -137 t59 -93.5t92.5 -53.5t122 -17q82 0 147 16.5t113 37.5l38 -98q-47 -29 -111.5 -45.5t-147.5 -19.5l-31 -215h-131l32 221q-81 12 -143.5 45.5t-104.5 86t-63.5 122.5t-21.5 154z" />
<glyph unicode="&#xa3;" d="M-42 0l16 110h5l-3 2q51 0 92 26t72 66.5t50.5 90.5t26.5 99l32 226h-203l43 110h176l39 264q15 108 50 182t90.5 119t131.5 65t174 20q29 0 60.5 -2.5t62.5 -6.5t59 -9.5t50 -11.5l-19 -102q-19 4 -44.5 8t-54 7t-59 5t-58.5 2q-70 0 -123.5 -14.5t-91.5 -47 t-62.5 -85.5t-35.5 -129l-38 -264h391l-16 -110h-391l-35 -242q-7 -49 -20 -88t-32 -71t-44.5 -58.5t-56.5 -50.5h641l-16 -110h-859z" />
<glyph unicode="&#xa4;" horiz-adv-x="1441" d="M-3 20l199 160q-41 56 -62.5 125t-21.5 149q0 22 2 43.5t5 44.5q16 109 61.5 197.5t116.5 159.5l-149 157l96 80l150 -157q73 49 159 76t180 27q91 0 170 -27t139 -75l194 156l75 -80l-194 -157q40 -56 61 -123.5t21 -145.5q0 -21 -1.5 -43t-5.5 -45q-16 -111 -63.5 -201 t-119.5 -161l152 -160l-98 -80l-154 160q-72 -47 -156.5 -72.5t-175.5 -25.5t-169 25.5t-137 73.5l-201 -161zM225 464q0 -86 29 -152t79 -110.5t117 -67t142 -22.5q81 0 162 29t148.5 84t115 135t62.5 182q6 40 6 77q0 87 -29.5 153t-79.5 110.5t-117.5 67t-142.5 22.5 q-81 0 -162 -29t-148 -84t-114 -135t-62 -182q-6 -41 -6 -78z" />
<glyph unicode="&#xa5;" d="M154 222l16 110h339l22 152l-2 6h-336l16 110h283l-255 760h146l233 -724l444 724h145l-474 -760h290l-16 -110h-342l-23 -158h342l-15 -110h-343l-32 -222h-131l32 222h-339z" />
<glyph unicode="&#xa6;" horiz-adv-x="373" d="M-20 -300l120 828h117l-120 -828h-117zM133 756l111 768h117l-111 -768h-117z" />
<glyph unicode="&#xa7;" horiz-adv-x="1138" d="M49 -390l48 108q37 -14 74.5 -26t80.5 -21t93 -14t112 -5q56 0 107 13.5t91 42t66.5 72t35.5 104.5q1 8 1.5 15t0.5 14q0 50 -26 89t-72.5 70.5t-111 56.5t-142.5 47q-69 19 -127.5 52t-101.5 76t-67.5 95.5t-24.5 111.5q0 20 3 41q14 96 61 160.5t122 109.5 q-29 36 -44 78t-15 90q0 21 3 44q13 87 51.5 152.5t99.5 109.5t143 66t183 22q59 0 113.5 -7.5t100.5 -18t82 -22.5t58 -22l-52 -108q-31 13 -63 25t-69.5 21.5t-83.5 15.5t-104 6q-145 0 -227.5 -57.5t-99.5 -172.5q-2 -8 -2 -16v-17q0 -41 17 -78t53.5 -69.5t94 -60.5 t139.5 -51q88 -29 156 -65.5t115 -81.5t71.5 -98.5t24.5 -115.5q0 -12 -1 -24t-3 -25q-13 -87 -57.5 -150t-112.5 -109q49 -64 49 -148q0 -21 -3 -45q-13 -86 -51 -151t-97 -109t-136.5 -66t-168.5 -22q-58 0 -115.5 5.5t-108.5 14.5t-93.5 21.5t-69.5 26.5zM219 533 q0 -38 15.5 -75.5t48 -71t83 -61.5t121.5 -49q176 -51 274 -119q48 30 80 74.5t40 104.5q2 8 2 15v15q0 51 -24 93.5t-66.5 78t-100 64t-124.5 50.5q-62 17 -115.5 40.5t-98.5 53.5q-56 -29 -89.5 -73t-43.5 -111q-1 -8 -1.5 -14.5t-0.5 -14.5z" />
<glyph unicode="&#xa8;" horiz-adv-x="909" d="M209 1226l19 170h189l-19 -170h-189zM673 1226l19 170h190l-19 -170h-190z" />
<glyph unicode="&#xa9;" horiz-adv-x="1731" d="M174 560q0 58 9 120q24 166 95.5 296t177.5 220t239.5 137t281.5 47q129 0 239 -40t189.5 -115t124.5 -182.5t45 -242.5q0 -57 -9 -120q-24 -166 -95.5 -296t-177 -220t-238.5 -137t-281 -47q-130 0 -240 40t-190 115t-125 182.5t-45 242.5zM289 550q0 -124 37.5 -213.5 t104.5 -147.5t158.5 -85.5t198.5 -27.5q115 0 225 36.5t200 111.5t153 188.5t85 267.5q5 35 7.5 67t2.5 63q0 123 -38 212.5t-105 147.5t-158 86t-197 28q-117 0 -226.5 -36.5t-199.5 -111.5t-153 -188.5t-85 -267.5q-5 -35 -7.5 -67.5t-2.5 -62.5zM507 593q0 36 6 77 q13 93 48 167t88.5 125.5t124 78.5t156.5 27q84 0 142 -17.5t96 -44.5l-48 -98q-16 10 -32.5 19t-39 16t-53 11t-74.5 4q-53 0 -98.5 -16.5t-81.5 -51.5t-61 -89.5t-36 -130.5q-3 -23 -5 -43t-2 -39q0 -111 53.5 -160.5t145.5 -49.5q87 0 146.5 16.5t107.5 37.5l22 -90 q-48 -30 -115 -52t-155 -22q-80 0 -142 23t-105 65.5t-65.5 102.5t-22.5 134z" />
<glyph unicode="&#xaa;" horiz-adv-x="835" d="M118 835v17q0 8 2 16q7 45 35 83.5t74 67t107.5 45t134.5 16.5h153l3 20q2 15 3 29t1 26q0 34 -8.5 56.5t-25 35.5t-40 18t-54.5 5q-29 0 -62 -3.5t-66.5 -9.5t-65 -14.5t-57.5 -18.5l-18 94q29 14 64.5 25.5t74 19.5t78 12.5t77.5 4.5q51 0 94 -10t74.5 -34t49.5 -64 t18 -100q0 -33 -6 -72l-63 -432h-103l-4 79q-22 -16 -49 -32.5t-58.5 -30t-66.5 -22t-71 -8.5q-59 0 -101 14t-70 38.5t-41 57.5t-13 71zM249 856q-3 -24 5 -41.5t25.5 -28.5t43 -16.5t56.5 -5.5q27 0 55.5 7t56 18t53 24.5t46.5 26.5l20 142h-138q-63 0 -105 -14t-67.5 -34 t-37 -41.5t-13.5 -36.5z" />
<glyph unicode="&#xab;" horiz-adv-x="1057" d="M77 434l12 84l392 400l63 -70l-343 -372l236 -364l-83 -70zM512 434l12 84l392 400l63 -70l-343 -372l236 -364l-83 -70z" />
<glyph unicode="&#xac;" horiz-adv-x="1192" d="M106 610l16 110h971l-50 -350h-131l35 240h-841z" />
<glyph unicode="&#xad;" horiz-adv-x="1192" d="M106 610l16 110h973l-16 -110h-973z" />
<glyph unicode="&#xae;" horiz-adv-x="1731" d="M194 555q0 60 9 125q24 166 94 296t173 220t233 137t274 47q125 0 231 -40t183.5 -114.5t121 -181.5t43.5 -241q0 -59 -9 -123q-24 -166 -94 -296t-173 -220t-232.5 -137t-273.5 -47q-126 0 -232.5 39.5t-183.5 114t-120.5 181t-43.5 240.5zM308 547q0 -123 36.5 -211.5 t100.5 -146.5t152 -85.5t191 -27.5q111 0 217.5 36.5t194 111.5t149.5 188.5t84 267.5q5 35 7.5 68t2.5 64q0 123 -36.5 212t-101 147t-152.5 85.5t-190 27.5q-113 0 -219.5 -36.5t-193.5 -111.5t-148.5 -188.5t-83.5 -267.5q-5 -35 -7.5 -68.5t-2.5 -64.5zM556 332l105 722 h286q51 0 96 -11t78.5 -34.5t53 -59.5t19.5 -86q0 -18 -3 -39q-5 -35 -22 -64.5t-42 -52.5t-56.5 -40.5t-65.5 -29.5l127 -305h-119l-117 284h-181l-42 -284h-117zM729 714h211q20 3 42 10t41.5 19.5t34 32t18.5 48.5q10 74 -32 103t-129 29h-151z" />
<glyph unicode="&#xaf;" horiz-adv-x="983" d="M206 1294l12 108h741l-12 -108h-741z" />
<glyph unicode="&#xb0;" horiz-adv-x="703" d="M182 1121q0 7 0.5 14t1.5 15q7 48 32.5 89.5t63.5 71.5t85 47.5t97 17.5q46 0 86 -15t69 -41.5t46 -62.5t17 -78q0 -7 -0.5 -14t-1.5 -15q-7 -48 -33 -89.5t-64 -72.5t-86 -48.5t-99 -17.5q-45 0 -84 15.5t-68 42.5t-45.5 63t-16.5 78zM300 1150q-3 -25 4.5 -46.5 t23.5 -37.5t37.5 -25t46.5 -9q27 0 52 9.5t45.5 25.5t34 37.5t17.5 45.5q3 25 -4 46.5t-22.5 37t-38 24t-50.5 8.5q-24 0 -48.5 -9t-45 -24.5t-34.5 -36.5t-18 -46z" />
<glyph unicode="&#xb1;" horiz-adv-x="1022" d="M6 0l16 110h841l-16 -110h-841zM99 524l16 110h314l46 316h131l-46 -316h320l-16 -110h-320l-46 -318h-131l46 318h-314z" />
<glyph unicode="&#xb2;" horiz-adv-x="721" d="M122 668l5 34q10 69 30 119.5t54 88.5t82.5 68.5t116.5 59.5q45 16 74.5 32.5t47.5 34.5t27 37t12 40q8 51 -24 78.5t-99 27.5q-53 0 -101 -19.5t-97 -46.5l-25 80q19 12 45 25.5t56 25.5t64.5 19.5t70.5 7.5q103 0 161 -43t58 -124q0 -17 -3 -35q-6 -42 -28.5 -75 t-55.5 -60t-74 -48.5t-83 -38.5q-38 -20 -69.5 -39.5t-56 -42.5t-41.5 -51t-25 -63h392l-14 -92h-500z" />
<glyph unicode="&#xb3;" horiz-adv-x="691" d="M75 702l40 74q48 -18 95 -30t104 -12q43 0 80.5 7t65 22t45 37.5t22.5 53.5q10 67 -36.5 95.5t-132.5 28.5h-147l13 86h147q74 0 124.5 27.5t58.5 86.5q4 31 -5.5 53t-30.5 35.5t-53 19.5t-72 6q-54 0 -102.5 -12t-101.5 -32l-18 74q26 15 59 26t66.5 18t64.5 10.5 t52 3.5q121 0 185.5 -45.5t64.5 -126.5q0 -16 -3 -32q-16 -113 -137 -155q130 -43 112 -165q-14 -97 -97.5 -152.5t-232.5 -55.5q-60 0 -121 12.5t-109 41.5z" />
<glyph unicode="&#xb4;" horiz-adv-x="567" d="M209 1152l242 274l144 -66l-285 -248z" />
<glyph unicode="&#xb5;" horiz-adv-x="1172" d="M56 -400l203 1400h130l-102 -702q-2 -16 -3.5 -30t-1.5 -27q0 -43 13 -72t39 -46.5t66.5 -25t95.5 -7.5q77 0 154.5 33.5t149.5 87.5l114 789h131l-145 -1000h-131l18 122q-77 -65 -160.5 -103.5t-171.5 -38.5q-66 0 -119 13.5t-86 45.5l-64 -439h-130z" />
<glyph unicode="&#x3bc;" horiz-adv-x="1172" d="M56 -400l203 1400h130l-102 -702q-2 -16 -3.5 -30t-1.5 -27q0 -43 13 -72t39 -46.5t66.5 -25t95.5 -7.5q77 0 154.5 33.5t149.5 87.5l114 789h131l-145 -1000h-131l18 122q-77 -65 -160.5 -103.5t-171.5 -38.5q-66 0 -119 13.5t-86 45.5l-64 -439h-130z" />
<glyph unicode="&#xb6;" horiz-adv-x="1023" d="M155 876q0 16 1.5 32.5t3.5 33.5q14 98 59.5 175.5t119.5 131.5t174 82.5t224 28.5h205l-197 -1360h-130l75 520h-75q-109 0 -194.5 25t-144.5 71.5t-90 112.5t-31 147z" />
<glyph unicode="&#xb7;" horiz-adv-x="439" d="M66 0l22 156h175l-23 -156h-174z" />
<glyph unicode="&#xb8;" horiz-adv-x="589" d="M44 -274q68 1 114 16t74.5 39.5t41 57t12.5 68.5q0 29 -7 58.5t-18 58.5l131 -12q17 -46 17 -92q0 -55 -23 -107.5t-68 -92t-112 -62.5t-154 -18z" />
<glyph unicode="&#xb9;" horiz-adv-x="487" d="M91 668l13 86h123l73 509l-131 -35l13 90l193 62h48l-91 -626h119l-12 -86h-348z" />
<glyph unicode="&#xba;" horiz-adv-x="872" d="M174 943q0 36 6 75q13 87 45 154t80 113.5t110 70.5t135 24q64 0 116 -20t89 -57.5t57.5 -91.5t20.5 -122q0 -17 -1 -34.5t-4 -36.5q-12 -87 -46 -154t-84 -113.5t-114.5 -70.5t-138.5 -24q-62 0 -112.5 19.5t-85.5 56.5t-54 90t-19 121zM305 945q0 -96 42.5 -137.5 t113.5 -41.5q42 0 80.5 14.5t70 45.5t54 78.5t32.5 113.5q2 19 3.5 35.5t1.5 32.5q0 50 -12.5 85t-34.5 57t-53.5 32t-68.5 10q-40 0 -76.5 -14.5t-65.5 -45t-50 -78t-31 -114.5q-6 -41 -6 -73z" />
<glyph unicode="&#xbb;" horiz-adv-x="1058" d="M30 112l344 371l-237 365l87 70l273 -392l-12 -84l-388 -400zM467 112l344 371l-237 365l87 70l273 -392l-12 -84l-388 -400z" />
<glyph unicode="&#xbc;" horiz-adv-x="1402" d="M128 668l13 86h123l73 509l-131 -35l13 90l193 62h48l-91 -626h119l-12 -86h-348zM106 0l1102 1360h103l-1098 -1360h-107zM639 157l9 66l476 490h114l-68 -468h105l-13 -88h-105l-22 -156h-109l23 156h-410zM783 245h278l49 338z" />
<glyph unicode="&#xbd;" horiz-adv-x="1529" d="M771 -1l5 34q10 69 30 119.5t54 88.5t82.5 68.5t116.5 59.5q45 16 74.5 32.5t47.5 34.5t27 37t12 40q8 51 -24 78.5t-99 27.5q-53 0 -101 -19.5t-97 -46.5l-25 80q19 12 45 25.5t56 25.5t64.5 19.5t70.5 7.5q103 0 161 -43t58 -124q0 -17 -3 -35q-6 -42 -28.5 -75 t-55.5 -60t-74 -48.5t-83 -38.5q-38 -20 -69.5 -39.5t-56 -42.5t-41.5 -51t-25 -63h392l-14 -92h-500zM128 668l13 86h123l73 509l-131 -35l13 90l193 62h48l-91 -626h119l-12 -86h-348zM103 0l1102 1360h103l-1098 -1360h-107z" />
<glyph unicode="&#xbe;" horiz-adv-x="1417" d="M75 702l40 74q48 -18 95 -30t104 -12q43 0 80.5 7t65 22t45 37.5t22.5 53.5q10 67 -36.5 95.5t-132.5 28.5h-147l13 86h147q74 0 124.5 27.5t58.5 86.5q4 31 -5.5 53t-30.5 35.5t-53 19.5t-72 6q-54 0 -102.5 -12t-101.5 -32l-18 74q26 15 59 26t66.5 18t64.5 10.5 t52 3.5q121 0 185.5 -45.5t64.5 -126.5q0 -16 -3 -32q-16 -113 -137 -155q130 -43 112 -165q-14 -97 -97.5 -152.5t-232.5 -55.5q-60 0 -121 12.5t-109 41.5zM149 0l1102 1360h103l-1098 -1360h-107zM659 157l9 66l476 490h114l-68 -468h105l-13 -88h-105l-22 -156h-109 l23 156h-410zM803 245h278l49 338z" />
<glyph unicode="&#xbf;" horiz-adv-x="1106" d="M1095.01 -237.925q-31.998 -21.998 -76.4961 -45.9971q-44.4971 -23.998 -97.9941 -43.9971q-53.4961 -19.999 -113.492 -32.998q-59.9971 -12.999 -122.993 -12.999q-82.9951 0 -149.49 18.999q-66.4961 18.999 -112.493 54.4961q-45.998 35.498 -70.4961 86.4951 t-24.498 114.993q0 11.999 1 24.498q0.999023 12.499 2.99902 26.499q11 71.9951 48.4971 129.491q37.498 57.4971 87.9951 105.494t107.493 87.9941q56.9961 39.998 105.993 76.9951q27.999 21.999 46.9971 48.4971q18.999 26.499 32.998 61.4971 q14 34.9971 23.499 79.4951q9.49902 44.4971 17.499 102.493h129.992q-11 -78.9951 -28.498 -138.991q-17.499 -59.9961 -43.498 -106.993q-25.998 -46.9971 -62.4961 -85.4951t-85.4941 -76.4951q-50.9971 -36.998 -94.4951 -68.9961q-43.4971 -31.998 -75.4951 -63.9961 t-52.9971 -66.9961q-20.998 -34.998 -26.998 -77.9951q-3 -20.999 -3 -41.9971q0 -40.998 13.999 -73.9961q14 -32.998 43.998 -56.4961q29.998 -23.499 76.9951 -36.498t113.993 -12.999q50.9971 0 97.4941 9.99902q46.4971 10 89.4941 26.499t82.9951 37.9971 q39.9971 21.499 78.9951 45.498zM1001.02 1000l-22.998 -157.99h-154.99l22.998 157.99h154.99z" />
<glyph unicode="&#xc0;" horiz-adv-x="1319" d="M8 0l690 1360h142l301 -1360h-137l-90 422h-558l-212 -422h-136zM411 532h479l-142 667zM490 1720l159 66l180 -280l-107 -34z" />
<glyph unicode="&#xc1;" horiz-adv-x="1319" d="M8 0l690 1360h142l301 -1360h-137l-90 422h-558l-212 -422h-136zM411 532h479l-142 667zM708 1514l242 274l144 -66l-285 -248z" />
<glyph unicode="&#xc2;" horiz-adv-x="1319" d="M8 0l690 1360h142l301 -1360h-137l-90 422h-558l-212 -422h-136zM411 532h479l-142 667zM453 1472l327 232h100l259 -232h-182l-144 119l-180 -119h-180z" />
<glyph unicode="&#xc3;" horiz-adv-x="1319" d="M8 0l690 1360h142l301 -1360h-137l-90 422h-558l-212 -422h-136zM411 532h479l-142 667zM421 1548q16 35 40 63t52 48t57.5 33t55.5 18q18 3 33 3q53 0 93 -23.5t77 -51.5q26 -24 51 -32t44 -10q16 0 34 6.5t35.5 18.5t32.5 30t26 41l86 -66q-18 -36 -42.5 -64t-52 -48 t-56.5 -32t-54 -16q-19 -4 -41 -4q-26 0 -48 6.5t-42.5 17t-39 23.5t-36.5 27q-27 23 -51 33.5t-44 10.5q-16 -1 -30 -4.5t-28.5 -13.5t-30 -28t-35.5 -46z" />
<glyph unicode="&#xc4;" horiz-adv-x="1319" d="M8 0l690 1360h142l301 -1360h-137l-90 422h-558l-212 -422h-136zM411 532h479l-142 667zM453 1472l19 170h189l-19 -170h-189zM917 1472l19 170h190l-19 -170h-190z" />
<glyph unicode="&#xc5;" horiz-adv-x="1319" d="M8 0l690 1360h142l301 -1360h-137l-90 422h-558l-212 -422h-136zM411 532h479l-142 667zM604 1666q6 41 28 76.5t55 61.5t74 41t85 15q41 0 77 -15.5t61 -42t37.5 -61.5t6.5 -75q-6 -42 -28 -76.5t-54 -59t-72 -38.5t-83 -14q-42 0 -79 14t-63 39.5t-38.5 59.5t-6.5 75z M732 1666q-2 -16 3 -30.5t15.5 -25t25 -16.5t30.5 -6q18 0 33.5 6.5t28 17t20.5 24.5t10 30q5 34 -13.5 59t-54.5 25q-16 0 -32 -7t-30 -18.5t-23.5 -27t-12.5 -31.5z" />
<glyph unicode="&#xc6;" horiz-adv-x="1887" d="M43 2l345 448l4 30h19l678 880h791l-16 -110h-612l-71 -492h548l-16 -110h-548l-78 -538h612l-16 -110h-743l54 370h-504l-284 -370zM574 480h436l101 699z" />
<glyph unicode="&#xc7;" d="M128 540q0 34 3 69.5t8 72.5q24 163 84.5 292.5t151 219.5t207.5 138t254 48q99 0 169 -22t117 -49l-58 -95q-48 26 -113.5 41t-137.5 15q-98 0 -186.5 -34t-160.5 -105.5t-123 -183t-73 -265.5q-12 -83 -12 -153q0 -117 30.5 -200t85.5 -136.5t132 -78t170 -24.5 q43 0 83 6.5t75.5 16t65 20.5t52.5 21l24 -92q-55 -35 -139.5 -58.5t-191.5 -23.5q-119 0 -215 39.5t-163 112.5t-103 176.5t-36 231.5zM393 -274q68 1 114 16t74.5 39.5t41 57t12.5 68.5q0 29 -7 58.5t-18 58.5l131 -12q17 -46 17 -92q0 -55 -23 -107.5t-68 -92t-112 -62.5 t-154 -18z" />
<glyph unicode="&#xc8;" horiz-adv-x="1055" d="M117 0l198 1360h743l-16 -110h-613l-71 -492h548l-16 -110h-548l-78 -538h612l-16 -110h-743zM404 1718l159 66l180 -280l-107 -34z" />
<glyph unicode="&#xc9;" horiz-adv-x="1055" d="M117 0l198 1360h743l-16 -110h-613l-71 -492h548l-16 -110h-548l-78 -538h612l-16 -110h-743zM622 1512l242 274l144 -66l-285 -248z" />
<glyph unicode="&#xca;" horiz-adv-x="1055" d="M117 0l198 1360h743l-16 -110h-613l-71 -492h548l-16 -110h-548l-78 -538h612l-16 -110h-743zM367 1470l327 232h100l259 -232h-182l-144 119l-180 -119h-180z" />
<glyph unicode="&#xcb;" horiz-adv-x="1055" d="M117 0l198 1360h743l-16 -110h-613l-71 -492h548l-16 -110h-548l-78 -538h612l-16 -110h-743zM367 1470l19 170h189l-19 -170h-189zM831 1470l19 170h190l-19 -170h-190z" />
<glyph unicode="&#xcc;" horiz-adv-x="821" d="M60 0l16 110h202l166 1140h-203l16 110h526l-16 -110h-193l-165 -1140h193l-16 -110h-526zM242 1718l159 66l180 -280l-107 -34z" />
<glyph unicode="&#xcd;" horiz-adv-x="821" d="M60 0l16 110h202l166 1140h-203l16 110h526l-16 -110h-193l-165 -1140h193l-16 -110h-526zM460 1512l242 274l144 -66l-285 -248z" />
<glyph unicode="&#xce;" horiz-adv-x="821" d="M60 0l16 110h202l166 1140h-203l16 110h526l-16 -110h-193l-165 -1140h193l-16 -110h-526zM205 1470l327 232h100l259 -232h-182l-144 119l-180 -119h-180z" />
<glyph unicode="&#xcf;" horiz-adv-x="821" d="M60 0l16 110h202l166 1140h-203l16 110h526l-16 -110h-193l-165 -1140h193l-16 -110h-526zM207 1470l19 170h189l-19 -170h-189zM671 1470l19 170h190l-19 -170h-190z" />
<glyph unicode="&#xd0;" horiz-adv-x="1391" d="M120 666l16 110h150l84 584h383q126 0 227.5 -38.5t172.5 -110t109.5 -173t38.5 -227.5q0 -31 -2.5 -63t-7.5 -66q-23 -158 -86 -284.5t-159 -215t-220.5 -135.5t-269.5 -47h-383l97 666h-150zM320 110h233q111 0 211.5 33.5t181.5 103.5t137 178t78 257q5 37 7.5 70.5 t2.5 65.5q0 116 -33 198t-92.5 134t-143 76t-184.5 24h-233l-69 -474h299l-16 -110h-299z" />
<glyph unicode="&#xd1;" horiz-adv-x="1422" d="M117 0l198 1360h130l601 -1145l166 1145h131l-197 -1360h-131l-604 1126l-163 -1126h-131zM467 1546q16 35 40 63t52 48t57.5 33t55.5 18q18 3 33 3q53 0 93 -23.5t77 -51.5q26 -24 51 -32t44 -10q16 0 34 6.5t35.5 18.5t32.5 30t26 41l86 -66q-18 -36 -42.5 -64t-52 -48 t-56.5 -32t-54 -16q-19 -4 -41 -4q-26 0 -48 6.5t-42.5 17t-39 23.5t-36.5 27q-27 23 -51 33.5t-44 10.5q-16 -1 -30 -4.5t-28.5 -13.5t-30 -28t-35.5 -46z" />
<glyph unicode="&#xd2;" horiz-adv-x="1380" d="M127 526q0 37 2.5 75t8.5 79q24 166 83 296t145 220t194.5 137t231.5 47q105 0 193.5 -38.5t153 -110.5t101 -175t36.5 -233q0 -34 -3 -69.5t-8 -73.5q-24 -167 -87 -297t-153 -219.5t-202 -136.5t-234 -47q-104 0 -189.5 37.5t-146 108t-93.5 171.5t-33 229zM256 514 q0 -110 25.5 -190t71.5 -132t110 -77t142 -25q90 0 175.5 36t157 109t123.5 184t74 261q12 82 12 153q0 114 -28 196.5t-77.5 136t-117.5 79t-148 25.5q-88 0 -170 -36t-149.5 -109t-116.5 -184t-71 -261q-7 -45 -10 -86.5t-3 -79.5zM524 1736l159 66l180 -280l-107 -34z " />
<glyph unicode="&#xd3;" horiz-adv-x="1380" d="M127 526q0 37 2.5 75t8.5 79q24 166 83 296t145 220t194.5 137t231.5 47q105 0 193.5 -38.5t153 -110.5t101 -175t36.5 -233q0 -34 -3 -69.5t-8 -73.5q-24 -167 -87 -297t-153 -219.5t-202 -136.5t-234 -47q-104 0 -189.5 37.5t-146 108t-93.5 171.5t-33 229zM256 514 q0 -110 25.5 -190t71.5 -132t110 -77t142 -25q90 0 175.5 36t157 109t123.5 184t74 261q12 82 12 153q0 114 -28 196.5t-77.5 136t-117.5 79t-148 25.5q-88 0 -170 -36t-149.5 -109t-116.5 -184t-71 -261q-7 -45 -10 -86.5t-3 -79.5zM742 1530l242 274l144 -66l-285 -248z " />
<glyph unicode="&#xd4;" horiz-adv-x="1380" d="M127 526q0 37 2.5 75t8.5 79q24 166 83 296t145 220t194.5 137t231.5 47q105 0 193.5 -38.5t153 -110.5t101 -175t36.5 -233q0 -34 -3 -69.5t-8 -73.5q-24 -167 -87 -297t-153 -219.5t-202 -136.5t-234 -47q-104 0 -189.5 37.5t-146 108t-93.5 171.5t-33 229zM256 514 q0 -110 25.5 -190t71.5 -132t110 -77t142 -25q90 0 175.5 36t157 109t123.5 184t74 261q12 82 12 153q0 114 -28 196.5t-77.5 136t-117.5 79t-148 25.5q-88 0 -170 -36t-149.5 -109t-116.5 -184t-71 -261q-7 -45 -10 -86.5t-3 -79.5zM487 1488l327 232h100l259 -232h-182 l-144 119l-180 -119h-180z" />
<glyph unicode="&#xd5;" horiz-adv-x="1380" d="M127 526q0 37 2.5 75t8.5 79q24 166 83 296t145 220t194.5 137t231.5 47q105 0 193.5 -38.5t153 -110.5t101 -175t36.5 -233q0 -34 -3 -69.5t-8 -73.5q-24 -167 -87 -297t-153 -219.5t-202 -136.5t-234 -47q-104 0 -189.5 37.5t-146 108t-93.5 171.5t-33 229zM256 514 q0 -110 25.5 -190t71.5 -132t110 -77t142 -25q90 0 175.5 36t157 109t123.5 184t74 261q12 82 12 153q0 114 -28 196.5t-77.5 136t-117.5 79t-148 25.5q-88 0 -170 -36t-149.5 -109t-116.5 -184t-71 -261q-7 -45 -10 -86.5t-3 -79.5zM455 1564q16 35 40 63t52 48t57.5 33 t55.5 18q18 3 33 3q53 0 93 -23.5t77 -51.5q26 -24 51 -32t44 -10q16 0 34 6.5t35.5 18.5t32.5 30t26 41l86 -66q-18 -36 -42.5 -64t-52 -48t-56.5 -32t-54 -16q-19 -4 -41 -4q-26 0 -48 6.5t-42.5 17t-39 23.5t-36.5 27q-27 23 -51 33.5t-44 10.5q-16 -1 -30 -4.5 t-28.5 -13.5t-30 -28t-35.5 -46z" />
<glyph unicode="&#xd6;" horiz-adv-x="1380" d="M127 526q0 37 2.5 75t8.5 79q24 166 83 296t145 220t194.5 137t231.5 47q105 0 193.5 -38.5t153 -110.5t101 -175t36.5 -233q0 -34 -3 -69.5t-8 -73.5q-24 -167 -87 -297t-153 -219.5t-202 -136.5t-234 -47q-104 0 -189.5 37.5t-146 108t-93.5 171.5t-33 229zM256 514 q0 -110 25.5 -190t71.5 -132t110 -77t142 -25q90 0 175.5 36t157 109t123.5 184t74 261q12 82 12 153q0 114 -28 196.5t-77.5 136t-117.5 79t-148 25.5q-88 0 -170 -36t-149.5 -109t-116.5 -184t-71 -261q-7 -45 -10 -86.5t-3 -79.5zM487 1488l19 170h189l-19 -170h-189z M951 1488l19 170h190l-19 -170h-190z" />
<glyph unicode="&#xd7;" horiz-adv-x="1024" d="M65 298l359 293l-273 293l100 80l273 -292l358 292l73 -84l-355 -290l271 -290l-97 -84l-274 292l-357 -292z" />
<glyph unicode="&#xd8;" horiz-adv-x="1236" d="M-69 -2l193 207q-34 63 -51.5 142t-17.5 173q0 76 12 160q24 166 83 296t145 220t194.5 137t231.5 47q107 0 198.5 -40t155.5 -115l127 135h126l-198 -213q36 -65 55.5 -145.5t19.5 -175.5q0 -35 -2.5 -71.5t-8.5 -74.5q-24 -167 -87 -297t-153 -219.5t-202 -136.5 t-234 -47q-106 0 -193 37t-147 108l-119 -127h-128zM185 518q0 -63 8.5 -115t24.5 -97l773 829q-50 69 -123 102t-163 33q-88 0 -170 -36t-149.5 -109t-116.5 -184t-71 -261q-7 -45 -10 -85t-3 -77zM264 218q47 -65 115 -96.5t155 -31.5q90 0 175.5 36t157 109t123.5 184 t74 261q12 82 12 150q0 65 -10 119t-28 99z" />
<glyph unicode="&#xd9;" horiz-adv-x="1398" d="M170 328q0 17 1 34.5t4 35.5l140 962h130l-139 -962q-2 -14 -3 -27.5t-1 -26.5q0 -63 23 -110.5t65.5 -79.5t102 -48t131.5 -16q78 0 150 20.5t128.5 60t94.5 96.5t49 131l139 962h131l-139 -960q-15 -104 -63.5 -182.5t-123 -131t-172 -79.5t-210.5 -27q-99 0 -180 23 t-138.5 67t-88.5 109t-31 149zM530 1718l159 66l180 -280l-107 -34z" />
<glyph unicode="&#xda;" horiz-adv-x="1398" d="M170 328q0 17 1 34.5t4 35.5l140 962h130l-139 -962q-2 -14 -3 -27.5t-1 -26.5q0 -63 23 -110.5t65.5 -79.5t102 -48t131.5 -16q78 0 150 20.5t128.5 60t94.5 96.5t49 131l139 962h131l-139 -960q-15 -104 -63.5 -182.5t-123 -131t-172 -79.5t-210.5 -27q-99 0 -180 23 t-138.5 67t-88.5 109t-31 149zM748 1512l242 274l144 -66l-285 -248z" />
<glyph unicode="&#xdb;" horiz-adv-x="1398" d="M170 328q0 17 1 34.5t4 35.5l140 962h130l-139 -962q-2 -14 -3 -27.5t-1 -26.5q0 -63 23 -110.5t65.5 -79.5t102 -48t131.5 -16q78 0 150 20.5t128.5 60t94.5 96.5t49 131l139 962h131l-139 -960q-15 -104 -63.5 -182.5t-123 -131t-172 -79.5t-210.5 -27q-99 0 -180 23 t-138.5 67t-88.5 109t-31 149zM493 1470l327 232h100l259 -232h-182l-144 119l-180 -119h-180z" />
<glyph unicode="&#xdc;" horiz-adv-x="1398" d="M170 328q0 17 1 34.5t4 35.5l140 962h130l-139 -962q-2 -14 -3 -27.5t-1 -26.5q0 -63 23 -110.5t65.5 -79.5t102 -48t131.5 -16q78 0 150 20.5t128.5 60t94.5 96.5t49 131l139 962h131l-139 -960q-15 -104 -63.5 -182.5t-123 -131t-172 -79.5t-210.5 -27q-99 0 -180 23 t-138.5 67t-88.5 109t-31 149zM493 1470l19 170h189l-19 -170h-189zM957 1470l19 170h190l-19 -170h-190z" />
<glyph unicode="&#xdd;" horiz-adv-x="1136" d="M194 1360h146l232 -724l444 724h146l-543 -870l-71 -490h-130l70 484zM632 1512l242 274l144 -66l-285 -248z" />
<glyph unicode="&#xde;" horiz-adv-x="1099" d="M37 0l197 1360h130l-47 -324h296q94 0 167.5 -21t123.5 -60.5t76.5 -95.5t26.5 -126q0 -14 -1 -28.5t-3 -28.5q-12 -85 -51.5 -152.5t-102.5 -114.5t-149 -72t-192 -25h-295l-46 -312h-130zM228 422h275q72 0 135 15t112 46.5t81 79.5t41 113q3 24 3 45q0 55 -21.5 93.5 t-60.5 63.5t-94.5 36.5t-122.5 11.5h-274z" />
<glyph unicode="&#xdf;" horiz-adv-x="1186" d="M18 -192l170 1170q13 93 52 171t100.5 134.5t144 87.5t183.5 31q161 0 243 -56.5t82 -165.5q0 -22 -3 -46q-5 -35 -15 -62t-23.5 -48.5t-29 -39.5t-31.5 -34q-35 -42 -58.5 -85.5t-31.5 -94.5q-8 -54 19.5 -93t80.5 -79q26 -21 51 -44.5t44.5 -51.5t31.5 -62t12 -77 q0 -21 -3 -45q-14 -95 -59.5 -161.5t-110.5 -108.5t-144 -61t-159 -19q-39 0 -77 3.5t-71.5 8t-60.5 10t-45 10.5l44 112q35 -11 89.5 -22.5t138.5 -11.5q55 0 109 13.5t98.5 41.5t75.5 71.5t40 103.5q4 31 -6.5 58t-28.5 50.5t-39 43.5t-38 38q-27 24 -50 48t-40 51 t-26.5 58t-9.5 69q0 11 1 22.5t3 23.5q10 73 35.5 130t76.5 117q9 10 21 24.5t24 30.5t21 32.5t11 31.5q10 70 -44 113t-174 43q-63 0 -117.5 -24t-97 -66t-70.5 -99.5t-38 -124.5l-170 -1170h-131z" />
<glyph unicode="&#xe0;" horiz-adv-x="1090" d="M101 298q0 52 9 112q19 136 69.5 248.5t120.5 192.5t154.5 124.5t172.5 44.5q46 0 81.5 -4.5t64 -14t53 -23t48.5 -31.5l40 53h83l-145 -1000h-123l13 136q-37 -37 -75.5 -66t-82.5 -49t-95 -30.5t-111 -10.5q-131 0 -204 81t-73 237zM232 309q0 -115 51 -167t157 -52 q41 0 82.5 12t82 33t79 50t73.5 62l90 621q-41 16 -92 29t-108 13q-70 0 -136 -35t-120.5 -100t-94 -157.5t-56.5 -207.5q-4 -28 -6 -53t-2 -48zM342 1398l159 66l180 -280l-107 -34z" />
<glyph unicode="&#xe1;" horiz-adv-x="1090" d="M101 298q0 52 9 112q19 136 69.5 248.5t120.5 192.5t154.5 124.5t172.5 44.5q46 0 81.5 -4.5t64 -14t53 -23t48.5 -31.5l40 53h83l-145 -1000h-123l13 136q-37 -37 -75.5 -66t-82.5 -49t-95 -30.5t-111 -10.5q-131 0 -204 81t-73 237zM232 309q0 -115 51 -167t157 -52 q41 0 82.5 12t82 33t79 50t73.5 62l90 621q-41 16 -92 29t-108 13q-70 0 -136 -35t-120.5 -100t-94 -157.5t-56.5 -207.5q-4 -28 -6 -53t-2 -48zM560 1192l242 274l144 -66l-285 -248z" />
<glyph unicode="&#xe2;" horiz-adv-x="1090" d="M101 298q0 52 9 112q19 136 69.5 248.5t120.5 192.5t154.5 124.5t172.5 44.5q46 0 81.5 -4.5t64 -14t53 -23t48.5 -31.5l40 53h83l-145 -1000h-123l13 136q-37 -37 -75.5 -66t-82.5 -49t-95 -30.5t-111 -10.5q-131 0 -204 81t-73 237zM232 309q0 -115 51 -167t157 -52 q41 0 82.5 12t82 33t79 50t73.5 62l90 621q-41 16 -92 29t-108 13q-70 0 -136 -35t-120.5 -100t-94 -157.5t-56.5 -207.5q-4 -28 -6 -53t-2 -48zM305 1150l327 232h100l259 -232h-182l-144 119l-180 -119h-180z" />
<glyph unicode="&#xe3;" horiz-adv-x="1090" d="M101 298q0 52 9 112q19 136 69.5 248.5t120.5 192.5t154.5 124.5t172.5 44.5q46 0 81.5 -4.5t64 -14t53 -23t48.5 -31.5l40 53h83l-145 -1000h-123l13 136q-37 -37 -75.5 -66t-82.5 -49t-95 -30.5t-111 -10.5q-131 0 -204 81t-73 237zM232 309q0 -115 51 -167t157 -52 q41 0 82.5 12t82 33t79 50t73.5 62l90 621q-41 16 -92 29t-108 13q-70 0 -136 -35t-120.5 -100t-94 -157.5t-56.5 -207.5q-4 -28 -6 -53t-2 -48zM272 1226q16 35 40 63t52 48t57.5 33t55.5 18q18 3 33 3q53 0 93 -23.5t77 -51.5q26 -24 51 -32t44 -10q16 0 34 6.5t35.5 18.5 t32.5 30t26 41l86 -66q-18 -36 -42.5 -64t-52 -48t-56.5 -32t-54 -16q-19 -4 -41 -4q-26 0 -48 6.5t-42.5 17t-39 23.5t-36.5 27q-27 23 -51 33.5t-44 10.5q-16 -1 -30 -4.5t-28.5 -13.5t-30 -28t-35.5 -46z" />
<glyph unicode="&#xe4;" horiz-adv-x="1090" d="M101 298q0 52 9 112q19 136 69.5 248.5t120.5 192.5t154.5 124.5t172.5 44.5q46 0 81.5 -4.5t64 -14t53 -23t48.5 -31.5l40 53h83l-145 -1000h-123l13 136q-37 -37 -75.5 -66t-82.5 -49t-95 -30.5t-111 -10.5q-131 0 -204 81t-73 237zM232 309q0 -115 51 -167t157 -52 q41 0 82.5 12t82 33t79 50t73.5 62l90 621q-41 16 -92 29t-108 13q-70 0 -136 -35t-120.5 -100t-94 -157.5t-56.5 -207.5q-4 -28 -6 -53t-2 -48zM305 1151l19 170h189l-19 -170h-189zM769 1151l19 170h190l-19 -170h-190z" />
<glyph unicode="&#xe5;" horiz-adv-x="1090" d="M101 298q0 52 9 112q19 136 69.5 248.5t120.5 192.5t154.5 124.5t172.5 44.5q46 0 81.5 -4.5t64 -14t53 -23t48.5 -31.5l40 53h83l-145 -1000h-123l13 136q-37 -37 -75.5 -66t-82.5 -49t-95 -30.5t-111 -10.5q-131 0 -204 81t-73 237zM232 309q0 -115 51 -167t157 -52 q41 0 82.5 12t82 33t79 50t73.5 62l90 621q-41 16 -92 29t-108 13q-70 0 -136 -35t-120.5 -100t-94 -157.5t-56.5 -207.5q-4 -28 -6 -53t-2 -48zM456 1345q6 41 28 76.5t55 61.5t74 41t85 15q41 0 77 -15.5t61 -42t37.5 -61.5t6.5 -75q-6 -42 -28 -76.5t-54 -59t-72 -38.5 t-83 -14q-42 0 -79 14t-63 39.5t-38.5 59.5t-6.5 75zM584 1345q-2 -16 3 -30.5t15.5 -25t25 -16.5t30.5 -6q18 0 33.5 6.5t28 17t20.5 24.5t10 30q5 34 -13.5 59t-54.5 25q-16 0 -32 -7t-30 -18.5t-23.5 -27t-12.5 -31.5z" />
<glyph unicode="&#xe6;" horiz-adv-x="1731" d="M78 213q0 13 1 26t3 27q9 63 43.5 115.5t87.5 90.5t122.5 59t149.5 21h290l10 70q4 26 6 48.5t2 42.5q0 55 -14 91t-42 57t-68.5 29t-93.5 8q-38 0 -81.5 -6.5t-85.5 -16.5t-80 -22.5t-65 -24.5l-31 102q37 18 81.5 34.5t93 28.5t99 19.5t99.5 7.5q60 0 110.5 -8.5 t89.5 -28t66.5 -51.5t40.5 -80q68 82 159.5 125t206.5 43q73 0 134 -21t104.5 -61t67.5 -99.5t24 -135.5q0 -37 -6 -77l-16 -110h-683l-4 -24q-5 -29 -6.5 -56t-1.5 -52q0 -146 70.5 -220t213.5 -74q54 0 98.5 6.5t81 16t65.5 20.5t52 21l25 -102q-63 -33 -149.5 -52.5 t-182.5 -19.5q-120 0 -206.5 37t-135.5 109q-32 -18 -76.5 -43.5t-104 -48t-135.5 -38.5t-171 -16q-66 0 -115 17.5t-80.5 48.5t-47 74t-15.5 93zM210 248q-6 -41 4.5 -70.5t34 -49t58 -29t76.5 -9.5q57 0 108.5 9t95 22.5t77.5 28.5t57 28l40 276h-267q-73 0 -124 -15.5 t-84.5 -43t-51.5 -65t-24 -82.5zM926 626h545q2 17 3.5 33.5t1.5 31.5q0 58 -16.5 99.5t-44.5 68t-66 39t-80 12.5q-59 0 -111.5 -14t-96.5 -47t-78 -87.5t-57 -135.5z" />
<glyph unicode="&#xe7;" horiz-adv-x="963" d="M117 399q0 25 2 50.5t6 52.5q18 121 63 217t114.5 163t162 102.5t203.5 35.5q90 0 154 -14t106 -40l-62 -98q-17 7 -35 14.5t-41.5 13.5t-54 10t-72.5 4q-76 0 -143 -23.5t-121 -73t-91 -127t-53 -184.5q-5 -30 -6.5 -57.5t-1.5 -52.5q0 -81 20.5 -138t58.5 -93.5 t92 -53.5t122 -17q83 0 148 16.5t113 37.5l37 -98q-51 -32 -125 -49t-171 -17q-101 0 -180 29.5t-133.5 84t-83 132t-28.5 173.5zM268 -274q68 1 114 16t74.5 39.5t41 57t12.5 68.5q0 29 -7 58.5t-18 58.5l131 -12q17 -46 17 -92q0 -55 -23 -107.5t-68 -92t-112 -62.5 t-154 -18z" />
<glyph unicode="&#xe8;" horiz-adv-x="1099" d="M112 378q0 54 9 114q19 129 62 227.5t108 165.5t150.5 101t189.5 34q73 0 134 -21t104.5 -61t67.5 -99.5t24 -135.5q0 -37 -6 -77l-16 -110h-683l-4 -24q-5 -29 -6.5 -56t-1.5 -52q0 -146 70.5 -220t213.5 -74q54 0 98.5 6.5t81 16t65.5 20.5t52 21l25 -102 q-63 -33 -149.5 -52.5t-182.5 -19.5q-199 0 -302.5 103.5t-103.5 294.5zM279 626h545q2 17 3.5 33.5t1.5 31.5q0 58 -16.5 99.5t-45 68t-66 39t-79.5 12.5q-59 0 -111.5 -14t-96.5 -47t-78 -87.5t-57 -135.5zM364 1398l159 66l180 -280l-107 -34z" />
<glyph unicode="&#xe9;" horiz-adv-x="1099" d="M112 378q0 54 9 114q19 129 62 227.5t108 165.5t150.5 101t189.5 34q73 0 134 -21t104.5 -61t67.5 -99.5t24 -135.5q0 -37 -6 -77l-16 -110h-683l-4 -24q-5 -29 -6.5 -56t-1.5 -52q0 -146 70.5 -220t213.5 -74q54 0 98.5 6.5t81 16t65.5 20.5t52 21l25 -102 q-63 -33 -149.5 -52.5t-182.5 -19.5q-199 0 -302.5 103.5t-103.5 294.5zM279 626h545q2 17 3.5 33.5t1.5 31.5q0 58 -16.5 99.5t-45 68t-66 39t-79.5 12.5q-59 0 -111.5 -14t-96.5 -47t-78 -87.5t-57 -135.5zM582 1192l242 274l144 -66l-285 -248z" />
<glyph unicode="&#xea;" horiz-adv-x="1099" d="M112 378q0 54 9 114q19 129 62 227.5t108 165.5t150.5 101t189.5 34q73 0 134 -21t104.5 -61t67.5 -99.5t24 -135.5q0 -37 -6 -77l-16 -110h-683l-4 -24q-5 -29 -6.5 -56t-1.5 -52q0 -146 70.5 -220t213.5 -74q54 0 98.5 6.5t81 16t65.5 20.5t52 21l25 -102 q-63 -33 -149.5 -52.5t-182.5 -19.5q-199 0 -302.5 103.5t-103.5 294.5zM279 626h545q2 17 3.5 33.5t1.5 31.5q0 58 -16.5 99.5t-45 68t-66 39t-79.5 12.5q-59 0 -111.5 -14t-96.5 -47t-78 -87.5t-57 -135.5zM327 1150l327 232h100l259 -232h-182l-144 119l-180 -119h-180z " />
<glyph unicode="&#xeb;" horiz-adv-x="1099" d="M112 378q0 54 9 114q19 129 62 227.5t108 165.5t150.5 101t189.5 34q73 0 134 -21t104.5 -61t67.5 -99.5t24 -135.5q0 -37 -6 -77l-16 -110h-683l-4 -24q-5 -29 -6.5 -56t-1.5 -52q0 -146 70.5 -220t213.5 -74q54 0 98.5 6.5t81 16t65.5 20.5t52 21l25 -102 q-63 -33 -149.5 -52.5t-182.5 -19.5q-199 0 -302.5 103.5t-103.5 294.5zM279 626h545q2 17 3.5 33.5t1.5 31.5q0 58 -16.5 99.5t-45 68t-66 39t-79.5 12.5q-59 0 -111.5 -14t-96.5 -47t-78 -87.5t-57 -135.5zM327 1151l19 170h189l-19 -170h-189zM791 1151l19 170h190 l-19 -170h-190z" />
<glyph unicode="&#xec;" horiz-adv-x="361" d="M37 0l145 1000h130l-145 -1000h-130zM-22 1385l159 66l180 -280l-107 -34z" />
<glyph unicode="&#xed;" horiz-adv-x="361" d="M37 0l145 1000h130l-145 -1000h-130zM196 1179l242 274l144 -66l-285 -248z" />
<glyph unicode="&#xee;" horiz-adv-x="361" d="M37 0l145 1000h130l-145 -1000h-130zM-59 1138l327 232h100l259 -232h-182l-144 119l-180 -119h-180z" />
<glyph unicode="&#xef;" horiz-adv-x="361" d="M37 0l145 1000h130l-145 -1000h-130zM-59 1138l19 170h189l-19 -170h-189zM405 1138l19 170h190l-19 -170h-190z" />
<glyph unicode="&#xf0;" horiz-adv-x="1206" d="M117 361q0 15 1 30.5t3 30.5q31 220 153.5 340t336.5 120q48 0 97.5 -11t94.5 -31t82.5 -49t60.5 -66q1 16 1.5 31t0.5 30q0 103 -19.5 183t-56.5 138l-250 -109l-39 90l223 96q-51 44 -117.5 65t-146.5 21l29 110q110 0 201.5 -37t155.5 -106l236 101l35 -88l-211 -92 q45 -75 67.5 -170t22.5 -209q0 -44 -3.5 -89.5t-10.5 -93.5q-21 -143 -67.5 -256.5t-117.5 -192.5t-164.5 -121t-208.5 -42q-96 0 -168.5 31.5t-121.5 84t-74 120.5t-25 141zM246 357q0 -55 16 -103t47.5 -83.5t79.5 -56t113 -20.5q81 0 151 28.5t125.5 88.5t94.5 153 t59 223q-29 54 -69.5 90t-87 57t-96.5 29.5t-98 8.5q-73 0 -130 -29t-98 -78t-67 -114t-36 -137q-2 -14 -3 -28.5t-1 -28.5z" />
<glyph unicode="&#xf1;" horiz-adv-x="1172" d="M114 0l145 1000h120l-8 -113q81 66 172.5 99.5t190.5 33.5q141 0 205.5 -61.5t64.5 -192.5q0 -24 -2 -49.5t-6 -54.5l-96 -662h-131l96 662q6 43 6 79q0 48 -12 80.5t-34.5 52t-56.5 28t-77 8.5q-90 0 -175.5 -34t-157.5 -88l-114 -788h-130zM308 1226q16 35 40 63t52 48 t57.5 33t55.5 18q18 3 33 3q53 0 93 -23.5t77 -51.5q26 -24 51 -32t44 -10q16 0 34 6.5t35.5 18.5t32.5 30t26 41l86 -66q-18 -36 -42.5 -64t-52 -48t-56.5 -32t-54 -16q-19 -4 -41 -4q-26 0 -48 6.5t-42.5 17t-39 23.5t-36.5 27q-27 23 -51 33.5t-44 10.5q-16 -1 -30 -4.5 t-28.5 -13.5t-30 -28t-35.5 -46z" />
<glyph unicode="&#xf2;" horiz-adv-x="1164" d="M115 384q0 54 9 116q18 124 62 221t110.5 163.5t154 101t191.5 34.5q88 0 161.5 -28.5t125.5 -82t81 -131t29 -175.5q0 -25 -2 -50.5t-6 -52.5q-18 -125 -66 -222t-119 -163t-161.5 -100.5t-193.5 -34.5q-88 0 -158 27.5t-118.5 79.5t-74 127t-25.5 170zM245 384 q0 -77 18.5 -132.5t52.5 -91.5t82.5 -53t108.5 -17q70 0 134 24.5t116.5 75t90 127.5t52.5 183q5 29 6.5 56t1.5 52q0 80 -20.5 137.5t-58 94t-89.5 53.5t-114 17q-69 0 -130 -24t-109.5 -74.5t-83 -128t-49.5 -183.5q-9 -63 -9 -116zM369 1396l159 66l180 -280l-107 -34z " />
<glyph unicode="&#xf3;" horiz-adv-x="1164" d="M115 384q0 54 9 116q18 124 62 221t110.5 163.5t154 101t191.5 34.5q88 0 161.5 -28.5t125.5 -82t81 -131t29 -175.5q0 -25 -2 -50.5t-6 -52.5q-18 -125 -66 -222t-119 -163t-161.5 -100.5t-193.5 -34.5q-88 0 -158 27.5t-118.5 79.5t-74 127t-25.5 170zM245 384 q0 -77 18.5 -132.5t52.5 -91.5t82.5 -53t108.5 -17q70 0 134 24.5t116.5 75t90 127.5t52.5 183q5 29 6.5 56t1.5 52q0 80 -20.5 137.5t-58 94t-89.5 53.5t-114 17q-69 0 -130 -24t-109.5 -74.5t-83 -128t-49.5 -183.5q-9 -63 -9 -116zM587 1190l242 274l144 -66l-285 -248z " />
<glyph unicode="&#xf4;" horiz-adv-x="1164" d="M115 384q0 54 9 116q18 124 62 221t110.5 163.5t154 101t191.5 34.5q88 0 161.5 -28.5t125.5 -82t81 -131t29 -175.5q0 -25 -2 -50.5t-6 -52.5q-18 -125 -66 -222t-119 -163t-161.5 -100.5t-193.5 -34.5q-88 0 -158 27.5t-118.5 79.5t-74 127t-25.5 170zM245 384 q0 -77 18.5 -132.5t52.5 -91.5t82.5 -53t108.5 -17q70 0 134 24.5t116.5 75t90 127.5t52.5 183q5 29 6.5 56t1.5 52q0 80 -20.5 137.5t-58 94t-89.5 53.5t-114 17q-69 0 -130 -24t-109.5 -74.5t-83 -128t-49.5 -183.5q-9 -63 -9 -116zM332 1148l327 232h100l259 -232h-182 l-144 119l-180 -119h-180z" />
<glyph unicode="&#xf5;" horiz-adv-x="1164" d="M115 384q0 54 9 116q18 124 62 221t110.5 163.5t154 101t191.5 34.5q88 0 161.5 -28.5t125.5 -82t81 -131t29 -175.5q0 -25 -2 -50.5t-6 -52.5q-18 -125 -66 -222t-119 -163t-161.5 -100.5t-193.5 -34.5q-88 0 -158 27.5t-118.5 79.5t-74 127t-25.5 170zM245 384 q0 -77 18.5 -132.5t52.5 -91.5t82.5 -53t108.5 -17q70 0 134 24.5t116.5 75t90 127.5t52.5 183q5 29 6.5 56t1.5 52q0 80 -20.5 137.5t-58 94t-89.5 53.5t-114 17q-69 0 -130 -24t-109.5 -74.5t-83 -128t-49.5 -183.5q-9 -63 -9 -116zM300 1224q16 35 40 63t52 48t57.5 33 t55.5 18q18 3 33 3q53 0 93 -23.5t77 -51.5q26 -24 51 -32t44 -10q16 0 34 6.5t35.5 18.5t32.5 30t26 41l86 -66q-18 -36 -42.5 -64t-52 -48t-56.5 -32t-54 -16q-19 -4 -41 -4q-26 0 -48 6.5t-42.5 17t-39 23.5t-36.5 27q-27 23 -51 33.5t-44 10.5q-16 -1 -30 -4.5 t-28.5 -13.5t-30 -28t-35.5 -46z" />
<glyph unicode="&#xf6;" horiz-adv-x="1164" d="M115 384q0 54 9 116q18 124 62 221t110.5 163.5t154 101t191.5 34.5q88 0 161.5 -28.5t125.5 -82t81 -131t29 -175.5q0 -25 -2 -50.5t-6 -52.5q-18 -125 -66 -222t-119 -163t-161.5 -100.5t-193.5 -34.5q-88 0 -158 27.5t-118.5 79.5t-74 127t-25.5 170zM245 384 q0 -77 18.5 -132.5t52.5 -91.5t82.5 -53t108.5 -17q70 0 134 24.5t116.5 75t90 127.5t52.5 183q5 29 6.5 56t1.5 52q0 80 -20.5 137.5t-58 94t-89.5 53.5t-114 17q-69 0 -130 -24t-109.5 -74.5t-83 -128t-49.5 -183.5q-9 -63 -9 -116zM333 1149l19 170h189l-19 -170h-189z M797 1149l19 170h190l-19 -170h-190z" />
<glyph unicode="&#xf7;" horiz-adv-x="1022" d="M98 552l16 110h810l-16 -110h-810zM371 212l24 166h158l-24 -166h-158zM456 800l24 166h159l-25 -166h-158z" />
<glyph unicode="&#xf8;" horiz-adv-x="1154" d="M-6 0l144 146q-53 95 -53 234q0 57 9 120q18 124 62 221t110.5 163.5t154 101t191.5 34.5q85 0 157.5 -26t123.5 -75l80 81h139l-158 -161q55 -96 55 -232q0 -26 -2 -52.5t-6 -54.5q-18 -125 -66 -222t-118.5 -163t-161.5 -100.5t-194 -34.5q-81 0 -147.5 22.5 t-114.5 66.5l-67 -69h-138zM215 383q0 -79 21 -136l570 582q-38 42 -91.5 61.5t-118.5 19.5q-69 0 -129.5 -24t-109.5 -74.5t-83 -128t-50 -183.5q-9 -65 -9 -117zM288 160q67 -70 189 -70q70 0 134.5 24.5t117 75t89.5 127.5t52 183q5 29 6.5 55t1.5 49q0 77 -21 136z" />
<glyph unicode="&#xf9;" horiz-adv-x="1172" d="M154 226q0 49 9 112l96 662h130l-96 -662q-4 -25 -5.5 -46.5t-1.5 -41.5q0 -45 10 -76t30.5 -49.5t52 -26.5t74.5 -8q86 0 176 34t171 88l114 788h131l-145 -1000h-131l17 117q-85 -66 -180.5 -101.5t-193.5 -35.5q-60 0 -108 11.5t-81.5 40t-51 76t-17.5 118.5z M375 1378l159 66l180 -280l-107 -34z" />
<glyph unicode="&#xfa;" horiz-adv-x="1172" d="M154 226q0 49 9 112l96 662h130l-96 -662q-4 -25 -5.5 -46.5t-1.5 -41.5q0 -45 10 -76t30.5 -49.5t52 -26.5t74.5 -8q86 0 176 34t171 88l114 788h131l-145 -1000h-131l17 117q-85 -66 -180.5 -101.5t-193.5 -35.5q-60 0 -108 11.5t-81.5 40t-51 76t-17.5 118.5z M593 1172l242 274l144 -66l-285 -248z" />
<glyph unicode="&#xfb;" horiz-adv-x="1172" d="M154 226q0 49 9 112l96 662h130l-96 -662q-4 -25 -5.5 -46.5t-1.5 -41.5q0 -45 10 -76t30.5 -49.5t52 -26.5t74.5 -8q86 0 176 34t171 88l114 788h131l-145 -1000h-131l17 117q-85 -66 -180.5 -101.5t-193.5 -35.5q-60 0 -108 11.5t-81.5 40t-51 76t-17.5 118.5z M337 1131l327 232h100l259 -232h-182l-144 119l-180 -119h-180z" />
<glyph unicode="&#xfc;" horiz-adv-x="1172" d="M154 226q0 49 9 112l96 662h130l-96 -662q-4 -25 -5.5 -46.5t-1.5 -41.5q0 -45 10 -76t30.5 -49.5t52 -26.5t74.5 -8q86 0 176 34t171 88l114 788h131l-145 -1000h-131l17 117q-85 -66 -180.5 -101.5t-193.5 -35.5q-60 0 -108 11.5t-81.5 40t-51 76t-17.5 118.5z M338 1131l19 170h189l-19 -170h-189zM802 1131l19 170h190l-19 -170h-190z" />
<glyph unicode="&#xfd;" horiz-adv-x="1020" d="M-13 -394l31 106q4 0 14.5 -2t23.5 -4t25 -4t18 -2q38 0 66.5 10t55.5 37t57 76t71 127l-211 1050h134l162 -880l430 880h134l-526 -1050h2q-49 -106 -91.5 -175.5t-87.5 -110.5t-95.5 -57.5t-114.5 -16.5q-26 0 -53 4t-45 12zM517 1172l242 274l144 -66l-285 -248z" />
<glyph unicode="&#xfe;" horiz-adv-x="1068" d="M-21 -400l261 1800h130l-68 -474q30 23 62 40.5t68.5 29.5t79 18t94.5 6q80 0 144.5 -28t109.5 -80.5t69.5 -127.5t24.5 -169q0 -26 -1.5 -54t-6.5 -57q-18 -121 -61.5 -218t-107.5 -165t-146 -104.5t-176 -36.5q-96 0 -162 23t-115 69l-69 -472h-130zM191 163 q45 -32 106 -52.5t128 -20.5q164 0 262.5 106.5t127.5 307.5q9 64 9 118q0 146 -68.5 217t-211.5 71q-32 0 -66 -5.5t-67 -15.5t-64.5 -23.5t-58.5 -29.5z" />
<glyph unicode="&#xff;" horiz-adv-x="1020" d="M-13 -394l31 106q4 0 14.5 -2t23.5 -4t25 -4t18 -2q38 0 66.5 10t55.5 37t57 76t71 127l-211 1050h134l162 -880l430 880h134l-526 -1050h2q-49 -106 -91.5 -175.5t-87.5 -110.5t-95.5 -57.5t-114.5 -16.5q-26 0 -53 4t-45 12zM262 1131l19 170h189l-19 -170h-189z M726 1131l19 170h190l-19 -170h-190z" />
<glyph unicode="&#x131;" horiz-adv-x="361" d="M37 0l145 1000h130l-145 -1000h-130z" />
<glyph unicode="&#x152;" horiz-adv-x="1709" d="M129 538q0 34 3 69t8 73q24 162 87 289t160.5 214.5t226 134t282.5 46.5q20 0 39.5 -0.5t36.5 -3.5h736l-16 -110h-613l-71 -492h548l-16 -110h-548l-78 -538h612l-16 -110h-703q-10 -1 -26.5 -2t-34.5 -1.5t-36 -0.5h-30q-132 0 -235 37.5t-173 107.5t-106.5 170.5 t-36.5 226.5zM261 546q0 -105 28 -186.5t83 -138t136 -86t188 -29.5q12 0 37.5 1t49.5 3l165 1137q-15 3 -31.5 5t-36.5 2q-118 0 -220.5 -40.5t-183 -115.5t-133.5 -181t-72 -237q-5 -35 -7.5 -68.5t-2.5 -65.5z" />
<glyph unicode="&#x153;" horiz-adv-x="1861" d="M94 386q0 27 1.5 55.5t6.5 58.5q18 124 62.5 221t111 163.5t153.5 101t191 34.5q130 0 226 -59.5t140 -169.5q67 112 170.5 170.5t237.5 58.5q73 0 134 -21t104.5 -61t67.5 -99.5t24 -135.5q0 -37 -6 -77l-16 -110h-683l-4 -24q-5 -29 -6.5 -56t-1.5 -52 q0 -146 70.5 -220t213.5 -74q54 0 98.5 6.5t81 16t65.5 20.5t52 21l25 -102q-63 -33 -149 -52.5t-183 -19.5q-149 0 -246 58t-135 169q-75 -109 -185.5 -168t-244.5 -59q-89 0 -158.5 27.5t-118 79.5t-74 127.5t-25.5 171.5zM224 383q0 -77 18.5 -132.5t52.5 -91t82.5 -52.5 t108.5 -17q70 0 134 24.5t116.5 75t90 127.5t52.5 183q5 29 6.5 56t1.5 52q0 80 -20.5 137.5t-58 94t-89.5 53.5t-114 17q-69 0 -130 -24t-109.5 -74.5t-83 -128t-49.5 -183.5q-9 -65 -9 -117zM1042 626h546q2 17 3.5 32.5t1.5 30.5q0 58 -16.5 100t-45 69t-66 39.5 t-80.5 12.5q-59 0 -111.5 -14t-96 -47t-78 -87.5t-57.5 -135.5z" />
<glyph unicode="&#x178;" horiz-adv-x="1136" d="M194 1360h146l232 -724l444 724h146l-543 -870l-71 -490h-130l70 484zM377 1470l19 170h189l-19 -170h-189zM841 1470l19 170h190l-19 -170h-190z" />
<glyph unicode="&#x2c6;" horiz-adv-x="791" d="M161 1148l327 232h100l259 -232h-182l-144 119l-180 -119h-180z" />
<glyph unicode="&#x2da;" horiz-adv-x="637" d="M224 1422q6 41 28 76.5t55 61.5t74 41t85 15q41 0 77 -15.5t61 -42t37.5 -61.5t6.5 -75q-6 -42 -28 -76.5t-54 -59t-72 -38.5t-83 -14q-42 0 -79 14t-63 39.5t-38.5 59.5t-6.5 75zM352 1422q-2 -16 3 -30.5t15.5 -25t25 -16.5t30.5 -6q18 0 33.5 6.5t28 17t20.5 24.5 t10 30q5 34 -13.5 59t-54.5 25q-16 0 -32 -7t-30 -18.5t-23.5 -27t-12.5 -31.5z" />
<glyph unicode="&#x2dc;" horiz-adv-x="926" d="M185 1202q16 35 40 63t52 48t57.5 33t55.5 18q18 3 33 3q53 0 93 -23.5t77 -51.5q26 -24 51 -32t44 -10q16 0 34 6.5t35.5 18.5t32.5 30t26 41l86 -66q-18 -36 -42.5 -64t-52 -48t-56.5 -32t-54 -16q-19 -4 -41 -4q-26 0 -48 6.5t-42.5 17t-39 23.5t-36.5 27 q-27 23 -51 33.5t-44 10.5q-16 -1 -30 -4.5t-28.5 -13.5t-30 -28t-35.5 -46z" />
<glyph unicode="&#x2000;" horiz-adv-x="930" />
<glyph unicode="&#x2001;" horiz-adv-x="1860" />
<glyph unicode="&#x2002;" horiz-adv-x="930" />
<glyph unicode="&#x2003;" horiz-adv-x="1860" />
<glyph unicode="&#x2004;" horiz-adv-x="620" />
<glyph unicode="&#x2005;" horiz-adv-x="465" />
<glyph unicode="&#x2006;" horiz-adv-x="310" />
<glyph unicode="&#x2007;" horiz-adv-x="310" />
<glyph unicode="&#x2008;" horiz-adv-x="232" />
<glyph unicode="&#x2009;" horiz-adv-x="372" />
<glyph unicode="&#x200a;" horiz-adv-x="103" />
<glyph unicode="&#x2010;" horiz-adv-x="762" d="M108 586l18 120h543l-17 -120h-544z" />
<glyph unicode="&#x2011;" horiz-adv-x="762" d="M108 586l18 120h543l-17 -120h-544z" />
<glyph unicode="&#x2012;" horiz-adv-x="762" d="M108 586l18 120h543l-17 -120h-544z" />
<glyph unicode="&#x2013;" horiz-adv-x="1192" d="M106 610l16 110h973l-16 -110h-973z" />
<glyph unicode="&#x2014;" horiz-adv-x="1817" d="M106 610l16 110h1579l-16 -110h-1579z" />
<glyph unicode="&#x2018;" horiz-adv-x="439" d="M132 946l242 456l105 -20l-155 -436h-192z" />
<glyph unicode="&#x2019;" horiz-adv-x="439" d="M131 966l153 436h192l-239 -456z" />
<glyph unicode="&#x201a;" horiz-adv-x="579" d="M5 -232l124 390h140l-176 -404z" />
<glyph unicode="&#x201c;" horiz-adv-x="723" d="M643.008 1382.06l-152.99 -435.973h-191.988l238.985 455.972zM926.008 1382.06l-152.99 -435.973h-191.988l238.985 455.972z" />
<glyph unicode="&#x201d;" horiz-adv-x="723" d="M150 966l153 436h192l-239 -456zM427 966l153 436h192l-239 -456z" />
<glyph unicode="&#x201e;" horiz-adv-x="721" d="M5 -232l124 390h140l-176 -404zM257 -232l124 390h140l-176 -404z" />
<glyph unicode="&#x2022;" horiz-adv-x="653" d="M123 688q6 42 28 79t55 64.5t75 43t88 15.5q42 0 78.5 -16t63 -43.5t39 -64.5t6.5 -78q-6 -42 -29 -78.5t-56.5 -63.5t-75 -42.5t-84.5 -15.5q-45 0 -82 16t-62.5 43t-37.5 63.5t-6 77.5z" />
<glyph unicode="&#x2026;" horiz-adv-x="1550" d="M70 0l19 132h146l-19 -132h-146zM625 0l19 132h146l-19 -132h-146zM1199 0l19 132h146l-19 -132h-146z" />
<glyph unicode="&#x202f;" horiz-adv-x="372" />
<glyph unicode="&#x2039;" horiz-adv-x="617" d="M77 434l12 84l392 400l63 -70l-343 -372l236 -364l-83 -70z" />
<glyph unicode="&#x203a;" horiz-adv-x="617" d="M30 112l344 371l-237 365l87 70l273 -392l-12 -84l-388 -400z" />
<glyph unicode="&#x2044;" horiz-adv-x="1082" d="M-86 0l1102 1360h103l-1098 -1360h-107z" />
<glyph unicode="&#x205f;" horiz-adv-x="465" />
<glyph unicode="&#x2074;" horiz-adv-x="744" d="M71 824l9 66l476 490h114l-68 -468h105l-13 -88h-105l-22 -156h-109l23 156h-410zM215 912h278l49 338z" />
<glyph unicode="&#x20ac;" d="M81 496l16 110h174q2 19 4.5 37.5t5.5 38.5q3 22 6 42.5t8 41.5h-175l16 110h187q35 116 89 209.5t123.5 159t153 100.5t176.5 35q99 0 172 -22.5t121 -49.5l-64 -94q-49 26 -114.5 41t-137.5 15q-60 0 -117.5 -23t-108 -71t-92.5 -122.5t-72 -177.5h533l-15 -110h-545 q-4 -20 -7.5 -41t-6.5 -43q-3 -21 -5 -39.5t-4 -36.5h544l-16 -110h-533q0 -105 22.5 -182t63 -126.5t97 -73.5t124.5 -24q44 0 84.5 6.5t76 16t65 20.5t52.5 21l23 -92q-55 -35 -139 -58.5t-191 -23.5q-94 0 -169 36t-127.5 103t-81.5 162.5t-30 214.5h-186z" />
<glyph unicode="&#x2122;" horiz-adv-x="1421" d="M201 1284l11 76h507l-11 -76h-205l-60 -418h-98l60 418h-204zM777 866l71 494h125l124 -266l202 266h126l-71 -494h-106l54 371l-168 -221l4 -8h-106l4 6l-104 227l-55 -375h-100z" />
<glyph unicode="&#xe000;" horiz-adv-x="1000" d="M0 1000h1000v-1000h-1000v1000z" />
<glyph unicode="&#xfb01;" horiz-adv-x="1198" d="M100 890l43 110h162l6 43q15 107 56 181t104 119.5t148 65.5t189 20q34 0 73.5 -2.5t78 -6.5t73 -9.5t59.5 -11.5l-15 -106q-23 4 -56 8.5t-69.5 8.5t-75 6.5t-71.5 2.5q-81 0 -144 -14.5t-108 -47t-73 -85.5t-39 -129l-6 -43h273l-16 -110h-273l-129 -890h-130l129 890 h-189zM775 0l145 1000h131l-145 -1000h-131z" />
<glyph unicode="&#xfb02;" horiz-adv-x="1312" d="M100 890l43 110h162l6 43q15 107 56 181t104 119.5t148 65.5t189 20q34 0 72 -2.5t75.5 -6.5t71.5 -9t60 -11h114l-203 -1400h-131l188 1296q-25 4 -56 8t-64 7.5t-66.5 5.5t-63.5 2q-81 0 -144 -14.5t-108 -47t-73 -85.5t-39 -129l-6 -43h273l-16 -110h-273l-129 -890 h-130l129 890h-189z" />
<glyph unicode="&#xfb03;" horiz-adv-x="2041" d="M1613 0l145 1000h131l-145 -1000h-131zM1770 1244l23 158h169l-23 -158h-169zM841 890l43 110h162l10 74q14 95 44.5 161t75.5 107t104.5 59.5t131.5 18.5q24 0 49.5 -2.5t50 -6.5t47 -9.5t39.5 -11.5l-18 -102q-29 8 -76.5 15t-93.5 7q-49 0 -86.5 -12.5t-64.5 -40.5 t-45 -73t-27 -110l-11 -74h273l-16 -110h-273l-129 -890h-130l129 890h-189zM100 890l43 110h162l10 74q14 95 44.5 161t75.5 107t104.5 59.5t131.5 18.5q24 0 49.5 -2.5t50 -6.5t47 -9.5t39.5 -11.5l-18 -102q-29 8 -76.5 15t-93.5 7q-49 0 -86.5 -12.5t-64.5 -40.5 t-45 -73t-27 -110l-11 -74h273l-16 -110h-273l-129 -890h-130l129 890h-189z" />
<glyph unicode="&#xfb04;" horiz-adv-x="2041" d="M1616 0l203 1400h130l-203 -1400h-130zM841 890l43 110h162l10 74q14 95 44.5 161t75.5 107t104.5 59.5t131.5 18.5q24 0 49.5 -2.5t50 -6.5t47 -9.5t39.5 -11.5l-18 -102q-29 8 -76.5 15t-93.5 7q-49 0 -86.5 -12.5t-64.5 -40.5t-45 -73t-27 -110l-11 -74h273l-16 -110 h-273l-129 -890h-130l129 890h-189zM100 890l43 110h162l10 74q14 95 44.5 161t75.5 107t104.5 59.5t131.5 18.5q24 0 49.5 -2.5t50 -6.5t47 -9.5t39.5 -11.5l-18 -102q-29 8 -76.5 15t-93.5 7q-49 0 -86.5 -12.5t-64.5 -40.5t-45 -73t-27 -110l-11 -74h273l-16 -110h-273 l-129 -890h-130l129 890h-189z" />
</font>
</defs>
</svg>
