<?xml version="1.0" standalone="no"?>
<!DOCTYPE svg PUBLIC "-//W3C//DTD SVG 1.1//EN" "http://www.w3.org/Graphics/SVG/1.1/DTD/svg11.dtd" >
<svg xmlns="http://www.w3.org/2000/svg">
<metadata>
This is a custom SVG webfont generated by Font Squirrel.
Copyright   : Font data copyright Punchcut 2009
Designer    : Punchcut
Foundry URL : Punchcutcom
</metadata>
<defs>
<font id="AmbleLightCondensedItalic" horiz-adv-x="1003" >
<font-face units-per-em="2048" ascent="1548" descent="-500" />
<missing-glyph horiz-adv-x="414" />
<glyph unicode=" "  horiz-adv-x="414" />
<glyph unicode="&#x09;" horiz-adv-x="414" />
<glyph unicode="&#xa0;" horiz-adv-x="414" />
<glyph unicode="!" horiz-adv-x="496" d="M90 0l18 126h143l-18 -126h-143zM152 384l141 976h129l-141 -976h-129z" />
<glyph unicode="&#x22;" horiz-adv-x="503" d="M116 950l45 410h141l-106 -420zM339 950l45 410h142l-106 -420z" />
<glyph unicode="#" horiz-adv-x="1127" d="M47 344l16 110h208l111 436h-213l16 110h225l92 360h125l-91 -360h221l90 360h128l-91 -360h202l-16 -110h-214l-109 -436h216l-16 -110h-229l-86 -344h-128l87 344h-221l-87 -344h-127l87 344h-196zM398 454h221l109 436h-220z" />
<glyph unicode="$" horiz-adv-x="1001" d="M71 48l43 108q33 -14 66 -26t70 -21t79 -14t93 -5q54 0 101.5 16.5t84.5 48.5t61 79t31 108q1 8 1.5 15t0.5 15q0 50 -18 89t-51 70t-79.5 56t-102.5 47q-59 22 -110 53t-88 72.5t-58 93.5t-21 116v20q0 10 2 21q9 79 37 143t73.5 111t106 75.5t134.5 36.5l24 220h129 l-24 -220q80 -8 141 -29t95 -37l-44 -108q-29 13 -57.5 25t-60.5 21.5t-70.5 15.5t-87.5 6q-58 0 -104.5 -17.5t-80.5 -50.5t-54.5 -79t-26.5 -103q-1 -9 -1.5 -18t-0.5 -17q0 -81 49.5 -142.5t164.5 -108.5q76 -30 134.5 -64t98 -75t60 -91t20.5 -111q0 -23 -3 -45 q-17 -148 -103 -240.5t-222 -118.5l-27 -249h-129l27 241q-46 1 -90.5 7t-84.5 15t-73 20.5t-55 24.5z" />
<glyph unicode="%" horiz-adv-x="1460" d="M198 0l966 1360h101l-963 -1360h-104zM214 1010q0 16 1.5 32.5t3.5 33.5q10 73 36.5 130t65.5 95.5t88.5 58.5t106.5 20q48 0 87.5 -16t68.5 -47t45 -75.5t16 -101.5q0 -15 -1.5 -31t-3.5 -33q-11 -74 -38 -131t-66.5 -95.5t-89.5 -58t-106 -19.5q-48 0 -87.5 16 t-67.5 46.5t-43.5 74.5t-15.5 101zM338 1027q0 -65 27.5 -105t78.5 -40q29 0 56 15t48.5 41.5t36.5 61.5t21 76q3 24 3 45q0 66 -28.5 107.5t-80.5 41.5q-29 0 -55 -15t-47 -41.5t-35.5 -62t-20.5 -75.5q-2 -13 -3 -25.5t-1 -23.5zM750 218q0 16 1.5 32.5t3.5 33.5 q10 73 36.5 130t65.5 95.5t88.5 58.5t106.5 20q49 0 88.5 -16.5t68 -47t44 -75t15.5 -101.5q0 -15 -1.5 -31t-3.5 -33q-11 -74 -37.5 -131t-65.5 -95.5t-89 -58t-107 -19.5q-48 0 -87.5 16t-67.5 46.5t-43.5 74.5t-15.5 101zM873 238q0 -66 28 -107t79 -41q29 0 55.5 15 t48 41.5t36.5 61.5t21 76q3 24 3 46q0 66 -28 107t-80 41q-29 0 -55.5 -15t-48 -41.5t-36 -62t-20.5 -75.5q-3 -24 -3 -46z" />
<glyph unicode="&#x26;" horiz-adv-x="1116" d="M54 286q0 22 3 46q8 70 35 127t70 106.5t99.5 95.5t122.5 96l-50 77q-41 61 -57 109.5t-16 98.5q0 22 3 46q7 67 34.5 121.5t70 92t98 58t119.5 20.5q55 0 100.5 -16.5t78 -48t50.5 -76t18 -100.5q0 -10 -0.5 -19.5t-1.5 -19.5q-6 -51 -26.5 -93t-53.5 -79.5t-76 -74.5 t-93 -77l-41 -33l259 -393q40 54 75 109.5t67 108.5l72 -72q-35 -65 -73 -124.5t-80 -113.5l132 -200l-98 -78l-119 181q-85 -84 -181.5 -132.5t-199.5 -48.5q-74 0 -136.5 20.5t-108 59.5t-71 96t-25.5 130zM185 332q-6 -52 8.5 -96t44.5 -76.5t73.5 -51t96.5 -18.5 q89 0 166 45t143 115l-274 418q-50 -38 -94 -74t-78.5 -75t-57 -84.5t-28.5 -102.5zM392 1034.5q3 -26.5 9.5 -50.5t15.5 -44t18 -34l49 -74q15 11 30.5 23t31.5 25q34 26 61.5 48t47 46.5t31.5 55t17 72.5q4 34 -5.5 65t-28.5 53.5t-45 36t-56 13.5q-31 0 -61 -12.5 t-54 -36t-40.5 -56.5t-20.5 -75q-3 -29 0 -55.5z" />
<glyph unicode="'" horiz-adv-x="307" d="M121 970l43 390h137l-91 -400z" />
<glyph unicode="(" horiz-adv-x="586" d="M114 384q0 43 2.5 87t7.5 89q16 146 53.5 283.5t90.5 260.5t118.5 227t136.5 183l83 -60q-53 -66 -108 -154t-104 -199t-87 -246t-56 -295q-6 -53 -8.5 -102.5t-2.5 -96.5q0 -116 14.5 -214t38 -180t52.5 -148.5t58 -120.5l-95 -60q-42 78 -78 163.5t-61.5 179t-40 194.5 t-14.5 209z" />
<glyph unicode=")" horiz-adv-x="588" d="M-11 -302q52 66 108 153.5t105.5 198.5t87.5 246t56 296q6 53 8.5 102t2.5 96q0 116 -14.5 214t-38 180t-53 149t-59.5 121l96 60q97 -152 147 -332.5t50 -391.5q0 -48 -3 -97.5t-8 -100.5q-16 -146 -53.5 -283.5t-90.5 -260.5t-118.5 -227t-136.5 -183z" />
<glyph unicode="*" horiz-adv-x="805" d="M134 1060l74 134l219 -171l29 357h126l-74 -351l267 181l38 -128l-285 -138l157 -269l-112 -87l-112 298h-15l-195 -310l-93 84l229 280z" />
<glyph unicode="+" horiz-adv-x="864" d="M80 484l16 110h274l45 316h119l-45 -316h277l-16 -110h-277l-46 -318h-119l46 318h-274z" />
<glyph unicode="," horiz-adv-x="428" d="M-10 -232l115 390h141l-168 -404z" />
<glyph unicode="-" horiz-adv-x="660" d="M95 586l17 120h465l-18 -120h-464z" />
<glyph unicode="." horiz-adv-x="488" d="M95 0l19 132h145l-19 -132h-145z" />
<glyph unicode="/" horiz-adv-x="707" d="M-67 -140l690 1500h125l-689 -1500h-126z" />
<glyph unicode="0" horiz-adv-x="998" d="M92 446q0 102 18 224q24 166 68.5 298t108 223.5t144.5 140t179 48.5q78 0 138 -34t100.5 -97t61 -153.5t20.5 -203.5q0 -51 -4 -106.5t-13 -115.5q-24 -167 -69 -295.5t-109.5 -216.5t-146.5 -133t-181 -45q-77 0 -136 31t-98.5 91t-60 146.5t-20.5 197.5zM219 438 q0 -167 50 -257.5t154 -90.5q65 0 122.5 41t104.5 117t81.5 183t53.5 239q9 61 13 117t4 107q0 87 -13 157t-39 118.5t-65 74.5t-91 26q-65 0 -121.5 -44.5t-102.5 -124t-79.5 -189.5t-52.5 -242q-10 -65 -14.5 -123t-4.5 -109z" />
<glyph unicode="1" d="M136 0l16 110h277l161 1109l-295 -81l16 110l350 112h78l-181 -1250h266l-16 -110h-672z" />
<glyph unicode="2" horiz-adv-x="1000" d="M63 0l5 36q14 96 35 172t50.5 137t68 110t87 92t108.5 82t132 81q117 68 174 146t70 166q2 13 3 25t1 23q0 94 -55 147t-152 53q-45 0 -88 -9.5t-83.5 -25.5t-79.5 -37t-76 -44l-29 94q29 21 70.5 44t90.5 42.5t103.5 32.5t110.5 13q72 0 130 -20.5t99 -59t63.5 -93.5 t22.5 -125q0 -17 -1.5 -34t-3.5 -34q-12 -80 -44 -140t-77.5 -108t-102 -86.5t-116.5 -73.5q-72 -45 -133.5 -91.5t-109 -104t-81 -130.5t-49.5 -170h604l-16 -110h-731z" />
<glyph unicode="3" horiz-adv-x="1000" d="M40 72l59 88q55 -30 115 -50t141 -20q66 0 125 16.5t106 50t78 84.5t41 119q2 16 3.5 30.5t1.5 28.5q0 58 -19 100t-53.5 69t-81.5 39.5t-104 12.5h-150l16 110h150q54 0 102.5 15.5t87.5 47.5t66 81t37 116q2 16 3 30t1 28q0 56 -18 94.5t-50.5 62.5t-77 34.5 t-97.5 10.5q-74 0 -135 -21.5t-122 -54.5l-39 88q30 23 69.5 41.5t83 31t89.5 19t88 6.5q78 0 140 -21t105 -60t66 -95.5t23 -128.5q0 -17 -1 -34.5t-4 -36.5q-16 -112 -75.5 -189.5t-156.5 -117.5q89 -35 136 -104t47 -166q0 -15 -1.5 -30t-3.5 -31q-13 -89 -52.5 -160.5 t-101.5 -121.5t-145 -77t-183 -27q-44 0 -88.5 6t-86 18t-76 29t-58.5 39z" />
<glyph unicode="4" horiz-adv-x="995" d="M16 314l11 76l692 970h157l-136 -936h174l-16 -110h-174l-45 -314h-128l46 314h-581zM185 424h428l110 763z" />
<glyph unicode="5" horiz-adv-x="1000" d="M53 66l52 100q25 -17 52.5 -30.5t60 -24t71 -16t85.5 -5.5q150 0 240.5 78.5t115.5 251.5q2 16 3.5 31t1.5 29q0 61 -20 106.5t-54.5 75t-82 44t-101.5 14.5q-60 0 -122 -12t-111 -38l-95 40l181 650h602l-16 -110h-505l-130 -454q50 16 113.5 25t140.5 9q78 0 139 -22.5 t103.5 -64.5t64.5 -102.5t22 -136.5q0 -41 -6 -84q-14 -98 -53.5 -179t-101.5 -139t-145 -90t-184 -32q-51 0 -99 7t-89.5 19t-75.5 27.5t-57 32.5z" />
<glyph unicode="6" horiz-adv-x="998" d="M97 444q0 44 3 90t11 96q25 175 77.5 314.5t127.5 236t171.5 148t209.5 51.5q91 0 149.5 -19t99.5 -47l-48 -96q-43 26 -92 39t-112 13q-77 0 -147.5 -35.5t-129.5 -109.5t-104 -189t-70 -275q72 94 164.5 142.5t186.5 48.5q76 0 133 -22.5t94.5 -64t56 -100.5t18.5 -132 q0 -24 -2 -49t-6 -52q-12 -85 -49 -166.5t-95 -145t-135.5 -102t-170.5 -38.5q-84 0 -148 32.5t-107 92.5t-64.5 146t-21.5 193zM222 432q0 -177 63.5 -259.5t187.5 -82.5q57 0 105 28.5t85.5 76t62.5 108t34 125.5q4 24 5.5 46.5t1.5 43.5q0 50 -10.5 91.5t-33.5 71 t-59 45.5t-87 16q-39 0 -82.5 -9t-89 -31.5t-90.5 -60.5t-87 -95q-6 -62 -6 -114z" />
<glyph unicode="7" horiz-adv-x="998" d="M193 1240l17 120h793l-16 -112l-644 -1248h-133l642 1240h-659z" />
<glyph unicode="8" horiz-adv-x="998" d="M51 294q0 17 1 35t4 37q17 120 90 205t187 126q-73 32 -112 94.5t-39 151.5q0 15 1.5 30.5t3.5 32.5q13 91 49 161t90.5 117t125.5 71.5t155 24.5q73 0 133.5 -20.5t104 -59.5t67 -95.5t23.5 -128.5q0 -17 -1 -34.5t-4 -35.5q-17 -119 -81 -195t-163 -114 q91 -36 141 -108t50 -169q0 -13 -1 -26.5t-3 -27.5q-14 -96 -54.5 -168t-102 -120.5t-141 -73t-171.5 -24.5q-80 0 -145 20.5t-111.5 60.5t-71.5 98.5t-25 134.5zM180 310q0 -55 17 -96t48.5 -68.5t76 -41.5t98.5 -14q60 0 114.5 18t98 53t73.5 86.5t39 118.5q3 24 3 45 q0 52 -18 94.5t-50.5 73t-78.5 47t-101 16.5q-59 0 -112.5 -20.5t-96 -57.5t-70.5 -87.5t-37 -110.5q-2 -15 -3 -28.5t-1 -27.5zM311 952q0 -100 55.5 -150t149.5 -50q51 0 99 17t87 49.5t65.5 79.5t35.5 108q2 14 3 27t1 26q0 52 -16 91.5t-44.5 66t-68.5 40t-87 13.5 q-51 0 -97.5 -17.5t-83 -51.5t-61.5 -83t-34 -112q-2 -14 -3 -27.5t-1 -26.5z" />
<glyph unicode="9" horiz-adv-x="999" d="M97 46l43 102q46 -27 101 -42.5t124 -15.5q66 0 128.5 34t115 104.5t93 179.5t63.5 260q-67 -73 -153 -111.5t-180 -38.5q-66 0 -120 25.5t-91.5 70.5t-58 107t-20.5 136q0 39 6 81q12 84 49 164t95.5 141.5t136 99t169.5 37.5q76 0 136 -25.5t100.5 -79t62 -137 t21.5 -198.5q0 -56 -4.5 -118.5t-15.5 -133.5q-24 -165 -73.5 -296t-119 -222.5t-157 -140.5t-187.5 -49q-50 0 -89 5t-70.5 14t-57 21t-47.5 26zM268 845q0 -48 10 -88t31.5 -68.5t55 -44.5t81.5 -16q40 0 83 8t86.5 28t86 54t81.5 86q5 42 6.5 79t1.5 70q0 95 -16.5 156.5 t-47 97t-73.5 49.5t-97 14q-55 0 -102.5 -27.5t-84.5 -74t-61.5 -107t-33.5 -125.5q-4 -24 -5.5 -47t-1.5 -44z" />
<glyph unicode=":" horiz-adv-x="506" d="M197 706l19 132h145l-19 -132h-145zM95 0l19 132h145l-19 -132h-145z" />
<glyph unicode=";" horiz-adv-x="479" d="M-10 -232l115 390h141l-168 -404zM184 716l19 132h145l-19 -132h-145z" />
<glyph unicode="&#x3c;" horiz-adv-x="897" d="M74 440l17 118l752 348l-19 -134l-629 -274l549 -274l-19 -132z" />
<glyph unicode="=" horiz-adv-x="1027" d="M85 362l16 110h786l-16 -110h-786zM135 704l16 110h785l-16 -110h-785z" />
<glyph unicode="&#x3e;" horiz-adv-x="897" d="M23 92l20 134l628 274l-549 274l19 132l652 -348l-18 -118z" />
<glyph unicode="?" horiz-adv-x="862" d="M173 1238q28 22 67 46t84.5 44t97.5 33t107 13q69 0 124.5 -18.5t93.5 -53t58.5 -84t20.5 -111.5q0 -14 -1 -29t-3 -30q-11 -72 -43 -129.5t-75.5 -105.5t-92.5 -88t-92 -77q-25 -22 -42 -48.5t-30 -61.5t-22 -79.5t-17 -102.5h-123q12 79 28 139t39.5 107t55.5 85.5 t75 76.5q44 37 80 69t63 64t44.5 67t23.5 78q2 12 3 24t1 23q0 40 -11.5 72t-36 55t-61.5 35.5t-88 12.5q-42 0 -81 -10t-76 -26.5t-71.5 -38t-68.5 -45.5zM221 0l23 158h142l-23 -158h-142z" />
<glyph unicode="@" horiz-adv-x="1542" d="M65 186q0 63 7 131.5t21 142.5q35 211 111.5 381.5t184 290t241.5 184t286 64.5q126 0 223.5 -41.5t165 -120t102.5 -191t35 -254.5q0 -116 -24 -251q-11 -63 -30 -128t-47 -125.5t-64 -113t-81 -91.5t-100 -61.5t-119 -22.5q-57 0 -91.5 43t-39.5 121 q-53 -81 -118.5 -122.5t-148.5 -41.5q-41 0 -73 17.5t-54.5 49.5t-34.5 78.5t-12 104.5q0 79 22 170q27 121 71 219.5t97.5 168t113.5 107t120 37.5q54 0 93.5 -8.5t70.5 -23.5t56.5 -34t51.5 -40h1l-119 -544q-7 -32 -9.5 -56.5t-2.5 -44.5q0 -28 5 -46t14 -28t20 -13.5 t23 -3.5q48 0 90 33.5t77 92t61.5 137t42.5 169.5q13 72 19.5 137.5t6.5 125.5q0 115 -26 205.5t-79 152.5t-134.5 94.5t-193.5 32.5q-124 0 -234 -55.5t-199.5 -160t-154 -254.5t-98.5 -340q-27 -144 -27 -265q0 -125 27.5 -221.5t81.5 -163.5t133 -101.5t182 -34.5 q40 0 84.5 6.5t88 18.5t84 28t73.5 35l-5 -112q-34 -22 -76.5 -38t-88.5 -26.5t-92.5 -16t-88.5 -5.5q-123 0 -219.5 42.5t-164 122.5t-103 195.5t-35.5 261.5zM533 241q0 -71 22.5 -111t69.5 -40q28 0 58.5 11.5t61 36.5t60.5 65.5t59 99.5v2l105 484q-23 14 -54 23.5 t-69 9.5q-105 0 -175 -107t-117 -315q-21 -90 -21 -159z" />
<glyph unicode="A" horiz-adv-x="1129" d="M-8 0l613 1360h136l224 -1360h-131l-66 422h-458l-188 -422h-130zM359 532h391l-101 652z" />
<glyph unicode="B" horiz-adv-x="1079" d="M87 0l197 1360h308q83 0 148 -21.5t109.5 -61t67.5 -95t23 -124.5q0 -15 -1.5 -30t-3.5 -32q-8 -57 -26.5 -102t-42 -79.5t-49.5 -60t-50 -43.5q78 -27 122 -94.5t44 -166.5q0 -16 -1.5 -32.5t-3.5 -33.5q-13 -89 -52 -160t-100.5 -121t-143.5 -76.5t-182 -26.5h-363z M231 110h217q67 0 126.5 15.5t106 47.5t77 82t40.5 119q2 17 3.5 33t1.5 30q0 108 -58.5 159.5t-154.5 51.5h-281zM325 758h354q14 16 33 36t38 48.5t35 69t24 98.5q2 14 3 26t1 23q0 51 -18 87.5t-51 59.5t-80.5 33.5t-107.5 10.5h-159z" />
<glyph unicode="C" horiz-adv-x="982" d="M111 518q0 78 12 164q24 163 78 292.5t133.5 219.5t181 138t219.5 48q83 0 141 -22t96 -49l-54 -95q-38 26 -90.5 41t-112.5 15q-81 0 -155.5 -34t-135.5 -105.5t-106 -183t-67 -265.5q-8 -51 -11 -95.5t-3 -86.5q0 -109 23.5 -187t67 -127.5t105 -72.5t136.5 -23 q36 0 69.5 6.5t62.5 16t54 20.5t45 21l19 -92q-48 -35 -117.5 -58.5t-162.5 -23.5q-99 0 -178.5 38t-135 108t-85 169.5t-29.5 222.5z" />
<glyph unicode="D" horiz-adv-x="1167" d="M87 0l197 1360h334q105 0 189 -37t143 -106t90.5 -167t31.5 -220q0 -35 -3 -72t-8 -76q-23 -158 -79.5 -284.5t-140 -215t-190.5 -135.5t-230 -47h-334zM231 110h188q91 0 175 33.5t152 103.5t117 178t70 257q7 45 10 85t3 77q0 109 -26 186t-73.5 126t-114 71.5 t-147.5 22.5h-188z" />
<glyph unicode="E" horiz-adv-x="911" d="M87 0l197 1360h643l-16 -110h-514l-72 -492h460l-16 -110h-460l-78 -538h515l-16 -110h-643z" />
<glyph unicode="F" horiz-adv-x="839" d="M87 0l197 1360h608l-15 -110h-480l-72 -492h424l-16 -110h-424l-94 -648h-128z" />
<glyph unicode="G" horiz-adv-x="1170" d="M115 546q0 33 2.5 66t7.5 68q25 172 85 303t149.5 219t205.5 133t252 45q42 0 79 -5.5t67 -14.5t53.5 -19t40.5 -19l-45 -106q-38 18 -89 36t-120 18q-102 0 -192 -35t-162.5 -107.5t-123 -184t-72.5 -263.5q-9 -62 -9 -122q0 -98 23 -183t67.5 -148.5t108.5 -100 t147 -36.5q59 0 120.5 8.5t114.5 31.5l61 424h-281l16 110h408l-87 -596q-86 -41 -176 -64.5t-192 -23.5q-108 0 -193 44t-144 120.5t-90.5 179.5t-31.5 222z" />
<glyph unicode="H" horiz-adv-x="1186" d="M87 0l197 1360h128l-90 -626h589l91 626h128l-198 -1360h-127l90 624h-589l-91 -624h-128z" />
<glyph unicode="I" horiz-adv-x="712" d="M41 0l16 110h166l165 1140h-166l16 110h455l-16 -110h-161l-166 -1140h162l-16 -110h-455z" />
<glyph unicode="J" horiz-adv-x="815" d="M-6 58l60 98q16 -12 39.5 -24t49.5 -21t52 -15t47 -6q50 0 91 16t72 51t52 90.5t33 134.5l141 978h128l-141 -972q-18 -121 -53 -200t-84.5 -125t-112 -64.5t-135.5 -18.5q-38 0 -73 6.5t-65.5 17.5t-56 25t-44.5 29z" />
<glyph unicode="K" horiz-adv-x="1074" d="M86 0l197 1360h128l-91 -622h165l442 622h154l-485 -674h-1l350 -686h-159l-317 628h-165l-91 -628h-127z" />
<glyph unicode="L" horiz-adv-x="887" d="M87 0l197 1360h128l-181 -1250h538l-16 -110h-666z" />
<glyph unicode="M" horiz-adv-x="1435" d="M87 0l197 1360h164l282 -706l485 706h163l-197 -1360h-128l113 778l64 415l-471 -689h-102l-273 692l-54 -406l-115 -790h-128z" />
<glyph unicode="N" horiz-adv-x="1226" d="M87 0l197 1360h128l467 -1123l163 1123h129l-197 -1360h-129l-469 1111l-161 -1111h-128z" />
<glyph unicode="O" horiz-adv-x="1185" d="M106 504q0 42 3 85.5t10 90.5q24 166 77.5 296t129.5 220t171 137t201 47q88 0 162 -37t127 -106t82.5 -168.5t29.5 -224.5q0 -77 -12 -164q-24 -167 -80 -297t-135 -219.5t-175.5 -136.5t-201.5 -47q-88 0 -160 35.5t-123 103t-78.5 165t-27.5 220.5zM233 486 q0 -103 20 -177.5t56.5 -123t87.5 -72t114 -23.5q75 0 146 36t131 109t104.5 184t66.5 261q15 102 15 185q0 105 -21.5 181.5t-60 126t-92.5 73.5t-118 24q-74 0 -142.5 -36t-126 -109t-100.5 -184t-65 -261q-15 -108 -15 -194z" />
<glyph unicode="P" horiz-adv-x="1017" d="M87 0l197 1360h333q87 0 155.5 -23.5t115.5 -67t71.5 -106t24.5 -139.5q0 -37 -6 -76q-14 -97 -53.5 -174t-101 -131t-144 -82.5t-182.5 -28.5h-205l-77 -532h-128zM308 642h186q70 0 130 18.5t106.5 56t77.5 95t42 136.5q6 39 6 71q0 62 -19 106t-54.5 71.5t-86 40.5 t-114.5 13h-185z" />
<glyph unicode="Q" horiz-adv-x="1151" d="M93 504q0 42 3 85.5t10 90.5q24 166 77.5 296t129.5 220t170.5 137t200.5 47q88 0 162 -37t127.5 -106t83 -168t29.5 -223q0 -39 -3 -80.5t-10 -85.5q-27 -191 -95 -329.5t-164 -229.5l192 -291h-147l-145 216q-54 -32 -112.5 -49t-120.5 -17q-88 0 -159.5 35.5 t-122.5 103t-78.5 165t-27.5 220.5zM219 487q0 -103 20 -178t56.5 -123.5t88 -72t113.5 -23.5q75 0 146.5 36t131.5 109t104.5 184t66.5 261q8 51 11 96.5t3 87.5q0 105 -21.5 182t-60 126.5t-92 73.5t-118.5 24q-74 0 -142.5 -36t-126 -109t-100.5 -184t-65 -261 q-15 -107 -15 -193z" />
<glyph unicode="R" horiz-adv-x="1048" d="M87 0l197 1360h353q159 0 246.5 -76.5t87.5 -219.5q0 -17 -1 -35t-4 -37q-8 -56 -30.5 -106t-54 -93t-70.5 -77.5t-81 -59.5l145 -656h-133l-135 626h-301l-91 -626h-128zM322 736h362q22 19 46 40.5t45 50t38 68.5t25 97q2 17 3.5 33t1.5 31q0 55 -17 92.5t-48.5 60 t-76.5 32t-102 9.5h-202z" />
<glyph unicode="S" horiz-adv-x="925" d="M52 48l42 108q33 -14 66.5 -26t70 -21t79 -14t93.5 -5q54 0 101.5 16.5t84.5 48.5t61 79t30 108q1 8 1.5 15.5t0.5 15.5q0 49 -18 88t-51 70t-79 56t-102 47q-59 22 -110 53t-88 72t-58 93t-21 115v21q0 10 2 22q9 87 42 155.5t86 116t124 73t156 25.5q51 0 98 -7.5 t86.5 -18t71 -22.5t52.5 -22l-44 -108q-29 13 -57.5 25t-60.5 21.5t-70.5 15.5t-87.5 6q-59 0 -105.5 -17.5t-80 -50.5t-54.5 -79t-27 -103q-1 -8 -1.5 -16.5t-0.5 -16.5q0 -82 49.5 -144t165.5 -109q76 -30 134.5 -64t98 -75t60 -91t20.5 -111q0 -23 -3 -45 q-10 -86 -44.5 -154t-89 -115.5t-127.5 -73t-159 -25.5q-49 0 -98.5 5.5t-94 14.5t-82 21.5t-62.5 26.5z" />
<glyph unicode="T" horiz-adv-x="1023" d="M169 1250l16 110h872l-16 -110h-369l-181 -1250h-128l181 1250h-375z" />
<glyph unicode="U" horiz-adv-x="1203" d="M138 319q0 37 6 79l140 962h128l-139 -962q-2 -17 -3.5 -32.5t-1.5 -30.5q0 -60 18 -106t52 -77t81.5 -46.5t106.5 -15.5q65 0 124 20.5t106 60t79 96.5t43 131l139 962h129l-139 -960q-15 -104 -58 -182.5t-108.5 -131t-149.5 -79.5t-181 -27q-84 0 -152.5 22.5 t-117.5 65.5t-75.5 106t-26.5 145z" />
<glyph unicode="V" horiz-adv-x="1111" d="M181 1360h135l126 -772l53 -395l166 387l350 780h136l-617 -1360h-126z" />
<glyph unicode="W" horiz-adv-x="1552" d="M204 1360h136l33 -1158l447 1158h133l107 -1153l371 1153h135l-458 -1360h-142l-118 1085l-441 -1085h-138z" />
<glyph unicode="X" horiz-adv-x="985" d="M-23 0l439 689l-242 671h153l193 -566l357 566h152l-437 -671l240 -689h-154l-191 577l-355 -577h-155z" />
<glyph unicode="Y" horiz-adv-x="983" d="M181 1360h138l177 -712l386 712h137l-480 -870l-71 -490h-128l71 486z" />
<glyph unicode="Z" horiz-adv-x="1073" d="M41 0l14 102l791 1148h-618l16 110h785l-12 -80l-818 -1170h711l-53 -110h-816z" />
<glyph unicode="[" horiz-adv-x="638" d="M149 -294l200 1818h264l-13 -110h-136l-176 -1598h137l-12 -110h-264z" />
<glyph unicode="\" horiz-adv-x="692" d="M152 1360h129l254 -1500h-128z" />
<glyph unicode="]" horiz-adv-x="645" d="M45 -294l12 110h136l176 1598h-136l12 110h264l-200 -1818h-264z" />
<glyph unicode="^" horiz-adv-x="772" d="M90 708l345 652h122l155 -652h-133l-107 486l-250 -486h-132z" />
<glyph unicode="_" horiz-adv-x="777" d="M-116 -198l16 110h772l-16 -110h-772z" />
<glyph unicode="`" horiz-adv-x="503" d="M178 1360l151 66l148 -280l-101 -34z" />
<glyph unicode="a" horiz-adv-x="968" d="M81 284q0 29 2.5 60.5t7.5 65.5q20 136 65 248.5t107 192.5t135.5 124.5t150.5 44.5q72 0 116.5 -18.5t80.5 -53.5l36 52h87l-145 -1000h-117l9 134q-61 -73 -132 -113.5t-169 -40.5q-112 0 -173 77.5t-61 226.5zM210 300q0 -110 42 -160t120 -50q33 0 67 12t67 32.5 t64.5 49t60.5 61.5l90 624q-32 16 -72 28.5t-85 12.5q-57 0 -111.5 -35t-101 -100t-81.5 -157.5t-51 -207.5q-9 -62 -9 -110z" />
<glyph unicode="b" horiz-adv-x="1020" d="M83 0l203 1402h128l-69 -476q51 42 113.5 68t147.5 26q66 0 119 -27t89.5 -77t56.5 -121.5t20 -160.5q0 -31 -2.5 -64t-7.5 -68q-17 -121 -56 -218t-94.5 -164.5t-125.5 -103.5t-150 -36q-46 0 -82 7.5t-65.5 22t-54 36t-46.5 49.5l-34 -95h-90zM236 175 q37 -34 85.5 -59.5t106.5 -25.5q133 0 215.5 105.5t111.5 306.5q5 38 8 72t3 65q0 137 -53.5 204t-165.5 67q-57 0 -113.5 -22.5t-102.5 -57.5z" />
<glyph unicode="c" horiz-adv-x="823" d="M93 385q0 55 9 117q18 121 59 217t102.5 163t141 102.5t174.5 35.5q76 0 132 -14t91 -40l-57 -98q-14 7 -29.5 14.5t-35 13.5t-45 10t-59.5 4q-63 0 -119 -23.5t-101.5 -73t-78 -127t-47.5 -184.5q-5 -35 -7.5 -67.5t-2.5 -61.5q0 -75 16.5 -129t46.5 -88t73.5 -50 t97.5 -16q70 0 124 16.5t95 37.5l28 -98q-45 -32 -108 -49t-144 -17q-84 0 -150.5 28.5t-112 81t-69.5 127.5t-24 168z" />
<glyph unicode="d" horiz-adv-x="1007" d="M107 363q0 32 2.5 67t7.5 72q18 121 55 217t90.5 163t122 102.5t148.5 35.5q82 0 135.5 -22t95.5 -66l68 468h129l-203 -1400h-122l6 71q-27 -22 -54 -39t-57.5 -28.5t-67 -17.5t-81.5 -6q-66 0 -117 27t-86 76.5t-53.5 120.5t-18.5 159zM232 350q0 -131 50 -195.5 t159 -64.5q56 0 111.5 21.5t100.5 54.5l97 667q-36 33 -84.5 55t-105.5 22q-133 0 -210 -104.5t-105 -303.5q-6 -43 -9.5 -80.5t-3.5 -71.5z" />
<glyph unicode="e" horiz-adv-x="944" d="M88 364q0 30 2.5 62t7.5 66q19 129 59 227.5t98 165.5t132.5 101t163.5 34q62 0 114 -20.5t89.5 -59.5t58 -96.5t20.5 -132.5q0 -40 -6 -85l-16 -110h-580l-4 -24q-5 -34 -7.5 -64.5t-2.5 -59.5q0 -137 57 -207.5t172 -70.5q44 0 81.5 6.5t68.5 16t56 20.5t45 21l21 -102 q-55 -33 -129 -52.5t-156 -19.5q-168 0 -256.5 99.5t-88.5 284.5zM253 626h446q6 43 6 79q0 55 -13 94t-35.5 64t-53 36t-64.5 11q-48 0 -91 -14t-79.5 -47t-65.5 -87.5t-50 -135.5z" />
<glyph unicode="f" horiz-adv-x="640" d="M100 890l38 110h125l11 74q14 95 42 161t69 107t94 59.5t116 18.5q42 0 85.5 -9t72.5 -21l-19 -102q-12 4 -28.5 8t-35 7t-39 5t-39.5 2q-41 0 -72 -12.5t-54 -40.5t-39 -73t-25 -110l-11 -74h236l-16 -110h-236l-129 -890h-128l129 890h-147z" />
<glyph unicode="g" horiz-adv-x="1023" d="M82 -388l41 100q20 -7 50 -14.5t64 -14t70 -11t68 -4.5q52 0 93.5 12.5t72 41t50.5 75.5t30 117l27 181q-27 -26 -53.5 -47t-57 -35t-66 -21.5t-80.5 -7.5q-66 0 -117.5 26.5t-87.5 76t-55 120t-19 158.5q0 32 3 66t8 71q18 121 55.5 217t91.5 163t122.5 102.5 t148.5 35.5q42 0 75 -8t60 -22.5t48.5 -35.5t41.5 -48l19 94h122l-158 -1086q-16 -110 -49 -179.5t-80.5 -108.5t-108.5 -53.5t-133 -14.5q-42 0 -85.5 5t-83 12.5t-72.5 17t-55 19.5zM240 352q0 -131 50 -194.5t161 -63.5q57 0 109.5 22t98.5 56l95 660q-35 34 -81 56 t-104 22q-134 0 -211 -103.5t-106 -304.5q-12 -84 -12 -150z" />
<glyph unicode="h" horiz-adv-x="1014" d="M83 0l203 1400h127l-73 -509q143 129 304 129q114 0 170.5 -59.5t56.5 -187.5q0 -50 -9 -111l-96 -662h-127l96 662q4 26 5.5 49t1.5 43q0 45 -9 75t-27 48t-44.5 25.5t-60.5 7.5q-74 0 -145 -33.5t-131 -86.5l-115 -790h-127z" />
<glyph unicode="i" horiz-adv-x="496" d="M98 0l145 1000h129l-145 -1000h-129zM263 1244l23 158h155l-23 -158h-155z" />
<glyph unicode="j" horiz-adv-x="516" d="M-205 -397l28 105q12 -4 28 -7t34 -5.5t36 -4t34 -1.5q34 0 62.5 13t51 43t38.5 79.5t27 122.5l152 1052h128l-153 -1052q-16 -114 -45 -185.5t-69.5 -112t-92.5 -55.5t-115 -15q-38 0 -77 6t-67 17zM303 1244l22 158h157l-23 -158h-156z" />
<glyph unicode="k" horiz-adv-x="915" d="M83 0l203 1400h127l-119 -822h98l343 422h148l-392 -474h-1l304 -526h-156l-265 468h-95l-68 -468h-127z" />
<glyph unicode="l" horiz-adv-x="497" d="M100 0l203 1400h129l-203 -1400h-129z" />
<glyph unicode="m" horiz-adv-x="1545" d="M83 0l145 1000h115l-5 -90q70 57 147 83.5t160 26.5q40 0 75 -5.5t63.5 -19t49.5 -35.5t33 -54q65 53 143.5 83.5t162.5 30.5q50 0 92 -11.5t72 -40t46.5 -76.5t16.5 -121q0 -27 -2.5 -57.5t-7.5 -65.5l-94 -648h-128l94 648q5 29 6.5 54.5t1.5 47.5q0 45 -9 76t-26 49.5 t-43 26.5t-59 8q-69 0 -132.5 -28.5t-120.5 -74.5q0 -17 -1 -35t-4 -38l-107 -734h-127l108 746q2 12 3 23t1 22q0 67 -37.5 93t-112.5 26q-73 0 -144.5 -34.5t-132.5 -88.5l-115 -787h-127z" />
<glyph unicode="n" horiz-adv-x="1014" d="M83 0l145 1000h115l-7 -112q144 132 308 132q114 0 170.5 -59.5t56.5 -187.5q0 -50 -9 -111l-96 -662h-127l96 662q4 26 5.5 49t1.5 43q0 45 -9 75t-27 48t-44.5 25.5t-60.5 7.5q-74 0 -145 -33.5t-131 -86.5l-115 -790h-127z" />
<glyph unicode="o" d="M91 371q0 30 2.5 62.5t7.5 66.5q18 124 58.5 221t100 163.5t136 101t165.5 34.5q75 0 136 -27.5t104.5 -79t67.5 -126t24 -168.5q0 -56 -9 -119q-18 -125 -61 -222t-105.5 -163t-141 -100.5t-166.5 -34.5q-75 0 -134 26.5t-100 76.5t-63 123t-22 165zM217 366 q0 -72 14.5 -124.5t42 -86t66 -49.5t86.5 -16q57 0 110 24.5t96.5 75t76 127.5t47.5 183q5 35 7.5 66.5t2.5 60.5q0 75 -16 128.5t-45.5 88t-70 50.5t-89.5 16q-56 0 -107 -24t-92.5 -74.5t-72 -128t-45.5 -183.5q-5 -38 -8 -71t-3 -63z" />
<glyph unicode="p" horiz-adv-x="1016" d="M25 -400l203 1400h111l-3 -79q28 24 56.5 42t60 31t69 19.5t84.5 6.5q66 0 119.5 -27t91 -77.5t58 -122.5t20.5 -162q0 -30 -2.5 -61.5t-7.5 -65.5q-18 -121 -57.5 -218t-95.5 -165t-126.5 -104.5t-150.5 -36.5q-81 0 -136.5 22.5t-97.5 68.5l-69 -471h-127zM235 169 q36 -34 85 -56.5t108 -22.5q133 0 216 106.5t112 307.5q5 38 8 71t3 64q0 271 -220 271q-57 0 -113.5 -22.5t-102.5 -57.5z" />
<glyph unicode="q" horiz-adv-x="1007" d="M107 365q0 32 2.5 67t7.5 72q18 121 55 217t90.5 162.5t122 101.5t148.5 35q44 0 79 -6.5t64 -19t53 -31t46 -43.5l28 80h100l-203 -1400h-129l68 467q-27 -23 -53.5 -39t-57 -27t-66 -16t-80.5 -5q-66 0 -117 27t-86 77t-53.5 121t-18.5 160zM232 351q0 -131 50 -196 t159 -65q56 0 111.5 21.5t100.5 54.5l97 667q-36 33 -84.5 55t-105.5 22q-133 0 -210 -104t-105 -302q-6 -43 -9.5 -81t-3.5 -72z" />
<glyph unicode="r" horiz-adv-x="644" d="M83 0l145 1000h115l-10 -131q63 83 126 117t126 34q17 0 35.5 -1t35.5 -3l-33 -134q-22 5 -44 6.5t-49 1.5q-53 0 -107.5 -38t-102.5 -99l-110 -753h-127z" />
<glyph unicode="s" horiz-adv-x="823" d="M51 54l43 112q31 -16 60.5 -29.5t61 -24t68.5 -16.5t85 -6q43 0 77.5 12.5t59 34t39 51.5t18.5 66q1 12 1 24q0 26 -6 46q-9 30 -32.5 53.5t-60 42t-85.5 36.5q-56 19 -102.5 47.5t-79 64.5t-48.5 80q-12 33 -11 68q0 12 1 24q7 67 34.5 119t71.5 88t102.5 54.5 t129.5 18.5q92 0 158.5 -20.5t103.5 -41.5l-39 -108q-26 11 -50.5 22t-52 19.5t-60.5 13.5t-75 5q-91 0 -138 -40.5t-55 -113.5q-3 -27 2.5 -54.5t22.5 -53t48.5 -47.5t81.5 -39q76 -25 129 -56.5t85.5 -68.5t44.5 -80q9 -31 9 -64q0 -13 -1 -27q-6 -59 -34 -111t-73 -91 t-104.5 -61.5t-128.5 -22.5q-45 0 -88.5 5.5t-82.5 15.5t-72.5 23.5t-57.5 29.5z" />
<glyph unicode="t" horiz-adv-x="685" d="M96 890l38 110h129l38 260l131 20l-41 -280h252l-15 -110h-253l-88 -604q-4 -23 -5.5 -43.5t-1.5 -37.5q0 -66 25.5 -90.5t79.5 -24.5q20 0 41.5 2t42.5 5t39.5 6.5t32.5 6.5l-8 -104q-32 -11 -78.5 -18.5t-90.5 -7.5q-49 0 -88.5 8.5t-67 31t-42.5 61.5t-15 101 q0 45 9 104l87 604h-151z" />
<glyph unicode="u" horiz-adv-x="1014" d="M122 216q0 26 2.5 56.5t7.5 65.5l96 662h127l-96 -662q-4 -29 -6 -53.5t-2 -45.5q0 -84 33 -116.5t101 -32.5q71 0 144.5 33.5t139.5 87.5l115 789h127l-145 -1000h-122l13 114q-72 -64 -152 -99t-162 -35q-51 0 -92 11t-69.5 38t-44 72.5t-15.5 114.5z" />
<glyph unicode="v" horiz-adv-x="853" d="M106 1000h138l86 -594l32 -250l115 252l257 592h128l-468 -1000h-111z" />
<glyph unicode="w" horiz-adv-x="1283" d="M124 1000h136l39 -799l361 799h80l126 -797l273 797h137l-381 -1000h-106l-124 756l-348 -756h-104z" />
<glyph unicode="x" horiz-adv-x="889" d="M-6 0l375 504l-230 496h144l164 -380l272 380h142l-371 -498l228 -502h-140l-165 387l-277 -387h-142z" />
<glyph unicode="y" horiz-adv-x="880" d="M-26 -394l29 106q4 0 13 -2t19.5 -4t20.5 -4t16 -2q31 0 54.5 10t46 37t48.5 76t61 127l-157 1050h132l110 -858l371 858h131l-469 -1050h1q-44 -106 -82 -175.5t-77.5 -110.5t-82.5 -57.5t-97 -16.5q-24 0 -47.5 4t-40.5 12z" />
<glyph unicode="z" horiz-adv-x="949" d="M67 0l16 116l620 774h-501l16 110h657l-15 -102l-642 -788h563l-42 -110h-672z" />
<glyph unicode="{" horiz-adv-x="622" d="M84 542l11 102q34 0 66 10.5t58 38.5t45 76t27 123l24 220q12 112 33.5 193.5t56 134.5t85 78.5t120.5 25.5l5 -76q-70 0 -111.5 -86t-61.5 -270l-24 -220q-8 -72 -25.5 -123.5t-43.5 -87t-61.5 -56.5t-78.5 -32q70 -19 108.5 -72t38.5 -154q0 -17 -1 -35t-3 -38 l-29 -272q-5 -47 -8 -87t-3 -74q0 -102 25.5 -148.5t79.5 -46.5l-22 -76q-111 0 -160 71t-49 216q0 65 9 145l30 272q2 20 3 37t1 33q0 55 -11.5 89.5t-31 54t-46 27t-56.5 7.5z" />
<glyph unicode="|" horiz-adv-x="359" d="M-14 -300l265 1824h128l-265 -1824h-128z" />
<glyph unicode="}" horiz-adv-x="622" d="M14 -334q70 0 116 87t66 269l24 220q8 72 24.5 123.5t41.5 87t58.5 56.5t76.5 32q-68 19 -104 70.5t-36 150.5q0 18 1.5 37.5t3.5 40.5l30 272q9 82 9 144q0 112 -28 162t-85 50l23 76q112 0 164.5 -74t52.5 -226q0 -30 -2 -63t-6 -69l-30 -272q-2 -22 -3.5 -41.5 t-1.5 -36.5q0 -52 10 -85t28 -52t43 -26t56 -7l-12 -102q-35 0 -65 -10.5t-54 -38.5t-41 -76t-25 -123l-25 -220q-12 -112 -35 -193.5t-60 -134.5t-88.5 -78.5t-120.5 -25.5z" />
<glyph unicode="~" horiz-adv-x="1189" d="M84 410q22 79 58 132.5t78 85t85.5 45t79.5 13.5q43 0 76.5 -9.5t62.5 -26t56 -39.5t56 -51q44 -41 86 -63.5t83 -22.5q19 0 43 7t49 28t48.5 58.5t42.5 98.5l101 -28q-21 -79 -57 -131.5t-77 -84t-84 -45t-78 -13.5q-44 0 -78 9t-64 25.5t-57 39t-55 50.5q-42 42 -83 65 t-87 23q-19 0 -42.5 -7.5t-48 -28.5t-48 -59t-43.5 -99z" />
<glyph unicode="&#xa1;" horiz-adv-x="494" d="M555.006 1000l-17.999 -125.992h-142.991l17.999 125.992h142.991zM493.01 616.023l-140.992 -975.94h-128.992l140.992 975.94h128.992z" />
<glyph unicode="&#xa2;" d="M97 380q0 57 9 122q16 111 52 201t89 155.5t122 105.5t152 51l26 177h114l-25 -174q57 -5 98.5 -18t71.5 -34l-57 -98q-14 7 -29.5 14.5t-35 13.5t-45 10t-59.5 4q-63 0 -119 -23.5t-101.5 -73t-78 -127t-48.5 -184.5q-5 -35 -7.5 -66.5t-2.5 -60.5q0 -76 16.5 -130 t47 -88.5t74 -50.5t97.5 -16q70 0 124 16.5t95 37.5l28 -98q-41 -29 -95.5 -45.5t-124.5 -19.5l-31 -215h-114l32 221q-135 25 -205 128t-70 265z" />
<glyph unicode="&#xa3;" horiz-adv-x="990" d="M-30 0l15 110h5l-2 2q42 0 77.5 26t62.5 66.5t45 90.5t25 99l32 226h-172l40 110h148l39 264q15 108 47 182t81.5 119t116.5 65t152 20q51 0 106 -9t93 -21l-18 -102q-16 4 -38 8t-47 7t-51.5 5t-50.5 2q-58 0 -102 -14.5t-76.5 -47t-53.5 -85.5t-32 -129l-38 -264h322 l-15 -110h-323l-35 -242q-7 -49 -19 -88t-29.5 -71t-40 -58.5t-50.5 -50.5h557l-16 -110h-755z" />
<glyph unicode="&#xa4;" horiz-adv-x="1219" d="M-11 20l172 161q-32 53 -48.5 118t-16.5 140q0 25 2 50.5t6 52.5q16 109 56 197.5t102 159.5l-123 157l93 80l120 -153q63 48 136 73.5t153 25.5q78 0 144 -25.5t116 -73.5l164 153l71 -80l-168 -158q30 -53 46.5 -116t16.5 -137q0 -25 -2 -51t-6 -52q-16 -110 -58 -200 t-104 -161l125 -161l-94 -80l-123 157q-63 -46 -135 -70.5t-150 -24.5q-75 0 -140.5 25t-116.5 70l-168 -157zM209 447q0 -82 22 -144.5t61 -105t92 -64t116 -21.5q69 0 136.5 29t123.5 84t96 135t55 182q4 26 5.5 49t1.5 46q0 82 -22.5 144.5t-61.5 105t-92.5 64 t-116.5 21.5q-69 0 -136 -29t-122.5 -84t-95.5 -135t-55 -182q-4 -26 -5.5 -49t-1.5 -46z" />
<glyph unicode="&#xa5;" horiz-adv-x="998" d="M121 222l16 110h279l22 154l-1 4h-277l16 110h233l-200 760h138l177 -712l386 712h137l-419 -760h244l-16 -110h-289l-23 -158h289l-16 -110h-289l-32 -222h-128l32 222h-279z" />
<glyph unicode="&#xa6;" horiz-adv-x="337" d="M-34 -300l120 828h120l-120 -828h-120zM119 756l112 768h120l-112 -768h-120z" />
<glyph unicode="&#xa7;" horiz-adv-x="985" d="M23 -390l40 108q32 -14 64.5 -26t68.5 -21t77.5 -14t92.5 -5q47 0 89 13.5t76 42t57 72t32 104.5q3 18 3 34q0 49 -21 87.5t-58.5 69t-90 55.5t-114.5 46q-62 19 -111.5 50.5t-84 73.5t-53 93t-18.5 108q0 13 1 25.5t3 25.5q14 96 57 161t109 110q-23 35 -35 74.5 t-12 85.5q0 13 1 25t3 26q26 174 135 262t284 88q50 0 96 -7.5t85 -18t69.5 -22.5t49.5 -22l-46 -108q-27 13 -55 25t-60 21.5t-70 15.5t-86 6q-118 0 -187 -57.5t-86 -172.5q-3 -21 -3 -40q0 -80 56.5 -143t188.5 -109q149 -57 224.5 -143t75.5 -207q0 -14 -1.5 -29 t-3.5 -31q-13 -88 -52 -151.5t-99 -109.5q38 -62 38 -139q0 -13 -1 -25.5t-3 -26.5q-12 -86 -46.5 -151t-86 -109t-119 -66t-146.5 -22q-49 0 -97 5.5t-91 14.5t-79 21.5t-60 26.5zM201 526q0 -37 12 -73t37.5 -68.5t65.5 -60.5t96 -48q72 -25 129 -53.5t100 -62.5 q38 30 64 73.5t34 102.5q3 22 3 42q0 97 -66 164.5t-184 109.5q-51 17 -95.5 39.5t-80.5 51.5q-45 -29 -74 -72t-38 -109q-3 -18 -3 -36z" />
<glyph unicode="&#xa8;" horiz-adv-x="794" d="M194 1226l19 170h167l-19 -170h-167zM591 1226l19 170h169l-19 -170h-169z" />
<glyph unicode="&#xa9;" horiz-adv-x="1484" d="M150 542q0 33 2.5 67.5t7.5 70.5q24 166 88 296t156.5 220t207.5 137t241 47q108 0 199.5 -38.5t158 -111.5t104 -177t37.5 -235q0 -33 -2.5 -67.5t-7.5 -70.5q-24 -166 -88 -296t-156 -220t-207 -137t-241 -47q-109 0 -200.5 38.5t-158 111.5t-104 177t-37.5 235z M250 531q0 -119 31 -204.5t86.5 -141.5t131.5 -82.5t165 -26.5q99 0 193 36.5t172.5 111.5t134.5 188.5t78 267.5q6 40 8.5 76.5t2.5 71.5q0 119 -31.5 205t-87 142t-131 82.5t-164.5 26.5q-99 0 -193.5 -36.5t-172.5 -111.5t-134 -188.5t-78 -267.5q-6 -40 -8.5 -77 t-2.5 -72zM433 581q0 21 2 43.5t5 45.5q13 93 44.5 167t78.5 125.5t108.5 78.5t135.5 27q71 0 119 -17.5t80 -44.5l-42 -98q-13 10 -27 19t-33 16t-44.5 11t-62.5 4q-44 0 -83 -16.5t-70.5 -51.5t-54 -89.5t-33.5 -130.5q-4 -25 -5.5 -48t-1.5 -43q0 -53 11.5 -91t33 -62.5 t52 -36t68.5 -11.5q74 0 123 16.5t90 37.5l17 -90q-42 -30 -98 -52t-131 -22q-68 0 -120.5 22t-88.5 62.5t-54.5 98.5t-18.5 130z" />
<glyph unicode="&#xaa;" horiz-adv-x="722" d="M108 828q0 19 3 40q6 45 31 83.5t64.5 67t92 45t114.5 16.5h126l3 20q2 18 3.5 33t1.5 29q0 32 -7 53t-20.5 33t-32.5 17t-44 5q-51 0 -109 -13t-103 -33l-14 94q25 14 55.5 25.5t63.5 19.5t66.5 12.5t65.5 4.5q44 0 80.5 -9.5t63 -32t41.5 -60.5t15 -96q0 -37 -6 -82 l-63 -432h-98l-2 80q-18 -16 -41.5 -33t-50 -30.5t-56 -22t-59.5 -8.5q-47 0 -82 13.5t-57.5 37t-33.5 55t-11 68.5zM229 856q-7 -48 23 -70t79 -22q21 0 44.5 7t46.5 18t44 24.5t38 26.5l21 142h-113q-51 0 -85 -14t-55 -34t-31 -41.5t-12 -36.5z" />
<glyph unicode="&#xab;" horiz-adv-x="905" d="M67 434l12 84l344 400l62 -70l-289 -372l182 -364l-82 -70zM437 434l12 84l344 400l62 -70l-289 -372l182 -364l-82 -70z" />
<glyph unicode="&#xac;" horiz-adv-x="1024" d="M95 610l16 110h823l-51 -350h-123l35 240h-700z" />
<glyph unicode="&#xad;" horiz-adv-x="983" d="M79 610l16 110h825l-16 -110h-825z" />
<glyph unicode="&#xae;" horiz-adv-x="1486" d="M161 537q0 34 3 69.5t8 73.5q24 166 87 296t153.5 220t203.5 137t237 47q107 0 197 -38.5t155 -110.5t101.5 -175t36.5 -233q0 -34 -3 -69.5t-8 -73.5q-24 -166 -87 -296t-154 -220t-204 -137t-237 -47q-107 0 -196.5 38.5t-154.5 110.5t-101.5 175t-36.5 233zM261 527 q0 -117 30.5 -202.5t84.5 -140.5t127.5 -81.5t160.5 -26.5q96 0 188.5 36.5t169.5 111.5t132.5 188.5t78.5 267.5q6 41 8.5 77.5t2.5 71.5q0 118 -31 204t-85 142t-128 82.5t-161 26.5q-97 0 -189 -36.5t-168.5 -111.5t-131.5 -188.5t-77 -267.5q-12 -83 -12 -153zM474 332 l104 722h244q44 0 82 -11t65.5 -33.5t43 -57t15.5 -82.5q0 -22 -3 -46q-10 -70 -55 -115.5t-103 -70.5l99 -306h-108l-90 284h-148l-41 -284h-105zM635 714h171q16 3 34.5 10t35 19.5t28.5 32t16 48.5q3 18 3 33q0 55 -33.5 77t-95.5 22h-124z" />
<glyph unicode="&#xaf;" horiz-adv-x="843" d="M189 1294l12 108h634l-12 -108h-634z" />
<glyph unicode="&#xb0;" horiz-adv-x="605" d="M172 1116v16q0 9 2 18q7 48 29 89.5t54.5 71.5t73 47.5t82.5 17.5q38 0 71 -15t57 -40.5t37.5 -61t13.5 -75.5v-17q0 -9 -2 -17q-7 -48 -29.5 -89.5t-55.5 -72.5t-74 -48.5t-84 -17.5q-37 0 -69 15t-55.5 41.5t-37 61.5t-13.5 76zM271 1150q-4 -25 2 -46.5t19 -37.5 t31.5 -25t39.5 -9q22 0 43.5 9.5t39 25.5t29.5 37.5t16 45.5q3 25 -2.5 46.5t-18 37t-31.5 24t-42 8.5q-21 0 -42 -9t-38.5 -24.5t-30 -36.5t-15.5 -46z" />
<glyph unicode="&#xb1;" horiz-adv-x="875" d="M-3 0l16 110h714l-16 -110h-714zM86 524l16 110h273l46 316h119l-46 -316h278l-16 -110h-278l-46 -318h-119l46 318h-273z" />
<glyph unicode="&#xb2;" horiz-adv-x="634" d="M109 668l5 34q10 69 28.5 119.5t49 88.5t74.5 68.5t104 59.5q37 16 62 32.5t41 34.5t23.5 37t10.5 40q8 51 -18.5 78.5t-83.5 27.5q-48 0 -91.5 -19.5t-88.5 -46.5l-20 80q18 12 41.5 25.5t51 25.5t58.5 19.5t64 7.5q89 0 138.5 -42.5t49.5 -120.5q0 -18 -3 -39 q-6 -42 -25.5 -75t-48 -60t-64 -48.5t-72.5 -38.5q-34 -20 -62 -39.5t-49.5 -42.5t-37 -51t-24.5 -63h337l-14 -92h-436z" />
<glyph unicode="&#xb3;" horiz-adv-x="597" d="M69 702l37 74q40 -18 79 -30t88 -12q36 0 66.5 7t54 22t38.5 37.5t19 53.5q10 67 -26.5 95.5t-107.5 28.5h-124l12 86h124q61 0 102 27.5t49 86.5q9 63 -26 88.5t-101 25.5q-46 0 -86.5 -12t-85.5 -32l-15 74q22 15 50 26t56.5 18t55 10.5t45.5 3.5q103 0 156 -44.5 t53 -123.5q0 -17 -3 -36q-16 -113 -120 -155q93 -36 93 -134q0 -8 -0.5 -15.5t-1.5 -15.5q-14 -97 -85.5 -152.5t-198.5 -55.5q-52 0 -104.5 12.5t-92.5 41.5z" />
<glyph unicode="&#xb4;" horiz-adv-x="503" d="M190 1152l209 274l138 -66l-253 -248z" />
<glyph unicode="&#xb5;" horiz-adv-x="1016" d="M27 -400l203 1400h127l-103 -714q-2 -14 -3 -27t-1 -25q0 -79 40.5 -111.5t128.5 -32.5q63 0 126.5 32.5t123.5 83.5l116 794h128l-145 -1000h-123l12 116q-63 -62 -133 -99t-142 -37q-52 0 -94 11.5t-71 38.5l-63 -430h-127z" />
<glyph unicode="&#x3bc;" horiz-adv-x="1016" d="M27 -400l203 1400h127l-103 -714q-2 -14 -3 -27t-1 -25q0 -79 40.5 -111.5t128.5 -32.5q63 0 126.5 32.5t123.5 83.5l116 794h128l-145 -1000h-123l12 116q-63 -62 -133 -99t-142 -37q-52 0 -94 11.5t-71 38.5l-63 -430h-127z" />
<glyph unicode="&#xb6;" horiz-adv-x="883" d="M141 867q0 18 1 36.5t4 38.5q14 98 54.5 175.5t104.5 131.5t149.5 82.5t190.5 28.5h185l-197 -1360h-128l76 520h-58q-91 0 -162 24.5t-120 69.5t-74.5 109t-25.5 144z" />
<glyph unicode="&#xb7;" horiz-adv-x="383" d="M36 0l22 156h161l-23 -156h-160z" />
<glyph unicode="&#xb8;" horiz-adv-x="516" d="M19 -274q56 1 95 17t64 42t36 60t11 72q0 52 -19 107l124 -12q6 -21 9.5 -42t3.5 -43q0 -56 -20.5 -109.5t-60.5 -94.5t-99 -64.5t-135 -18.5z" />
<glyph unicode="&#xb9;" horiz-adv-x="424" d="M83 668l12 86h103l74 510l-114 -36l13 90l164 62h51l-91 -626h99l-13 -86h-298z" />
<glyph unicode="&#xba;" horiz-adv-x="742" d="M150 933q0 40 6 85q13 87 42 154t71.5 113.5t96.5 70.5t117 24q54 0 98 -19t74.5 -55t47.5 -88t17 -118q0 -39 -6 -82q-12 -87 -42.5 -154t-74.5 -113.5t-99.5 -70.5t-119.5 -24q-53 0 -95 19t-71.5 54.5t-45.5 87t-16 116.5zM269 935q0 -90 34.5 -129.5t90.5 -39.5 q35 0 67 14.5t59 45.5t46.5 78.5t28.5 113.5q3 23 5 43t2 38q0 92 -37.5 131.5t-97.5 39.5q-33 0 -63 -14.5t-55.5 -45t-44 -78t-28.5 -114.5q-3 -23 -5 -43.5t-2 -39.5z" />
<glyph unicode="&#xbb;" horiz-adv-x="906" d="M15 112l289 371l-183 365l84 70l228 -392l-13 -84l-342 -400zM386 112l289 371l-183 365l84 70l228 -392l-13 -84l-342 -400z" />
<glyph unicode="&#xbc;" horiz-adv-x="1192" d="M113 668l12 86h103l74 510l-114 -36l13 90l164 62h51l-91 -626h99l-13 -86h-298zM77 0l966 1360h101l-963 -1360h-104zM543 157l9 66l411 490h103l-68 -468h87l-13 -88h-87l-22 -156h-98l23 156h-345zM671 245h229l49 333z" />
<glyph unicode="&#xbd;" horiz-adv-x="1298" d="M650 -1l5 34q10 69 28.5 119.5t49 88.5t74.5 68.5t104 59.5q37 16 62 32.5t41 34.5t23.5 37t10.5 40q8 51 -18.5 78.5t-83.5 27.5q-48 0 -91.5 -19.5t-88.5 -46.5l-20 80q18 12 41.5 25.5t51 25.5t58.5 19.5t64 7.5q89 0 138.5 -42.5t49.5 -120.5q0 -18 -3 -39 q-6 -42 -25.5 -75t-48 -60t-64 -48.5t-72.5 -38.5q-34 -20 -62 -39.5t-49.5 -42.5t-37 -51t-24.5 -63h337l-14 -92h-436zM113 668l12 86h103l74 510l-114 -36l13 90l164 62h51l-91 -626h99l-13 -86h-298zM81 0l966 1360h101l-963 -1360h-104z" />
<glyph unicode="&#xbe;" horiz-adv-x="1201" d="M69 702l37 74q40 -18 79 -30t88 -12q36 0 66.5 7t54 22t38.5 37.5t19 53.5q10 67 -26.5 95.5t-107.5 28.5h-124l12 86h124q61 0 102 27.5t49 86.5q9 63 -26 88.5t-101 25.5q-46 0 -86.5 -12t-85.5 -32l-15 74q22 15 50 26t56.5 18t55 10.5t45.5 3.5q103 0 156 -44.5 t53 -123.5q0 -17 -3 -36q-16 -113 -120 -155q93 -36 93 -134q0 -8 -0.5 -15.5t-1.5 -15.5q-14 -97 -85.5 -152.5t-198.5 -55.5q-52 0 -104.5 12.5t-92.5 41.5zM115 0l966 1360h101l-963 -1360h-104zM556 157l9 66l411 490h103l-68 -468h87l-13 -88h-87l-22 -156h-98l23 156 h-345zM684 245h229l49 333z" />
<glyph unicode="&#xbf;" horiz-adv-x="901" d="M897.011 -237.925q-27.998 -21.998 -66.9961 -45.9971q-38.998 -23.998 -84.4951 -43.9971t-97.4941 -32.998q-51.9961 -12.999 -106.993 -12.999q-68.9961 0 -124.492 18.499q-55.4971 18.499 -93.4941 52.9961q-37.998 34.498 -58.4971 83.9951 q-20.498 49.4971 -20.498 111.493q0 13.999 1 28.998t2.99902 29.999q11 71.9951 42.998 129.491q31.998 57.4971 75.4951 105.494t92.4941 87.9941q48.9971 39.998 91.9941 76.9951q24.999 21.999 41.998 48.4971q16.999 26.499 29.998 61.4971 q12.999 34.9971 21.999 79.4951q8.99902 44.4971 16.999 102.493h122.992q-11.999 -78.9951 -27.998 -138.991t-39.498 -106.993q-23.498 -46.9971 -55.4961 -85.4951t-74.9961 -76.4951q-43.9971 -36.998 -79.9951 -68.9961t-62.9961 -63.9961t-44.4971 -66.9961 t-23.499 -77.9951q-1.99902 -11.999 -2.99902 -23.998q-1 -12 -1 -22.999q0 -39.9971 11.499 -71.9951t35.998 -54.9971q24.498 -22.999 61.4961 -35.498q36.9971 -12.499 87.9941 -12.499q41.998 0 80.9951 9.99902q38.998 10 75.9961 26.499 q36.9971 16.499 71.4951 37.9971q34.498 21.499 68.4961 45.498zM849.014 1000l-22.999 -157.99h-141.991l22.999 157.99h141.991z" />
<glyph unicode="&#xc0;" horiz-adv-x="1129" d="M-8 0l613 1360h136l224 -1360h-131l-66 422h-458l-188 -422h-130zM359 532h391l-101 652zM427 1720l151 66l148 -280l-101 -34z" />
<glyph unicode="&#xc1;" horiz-adv-x="1129" d="M-8 0l613 1360h136l224 -1360h-131l-66 422h-458l-188 -422h-130zM359 532h391l-101 652zM600 1514l209 274l138 -66l-253 -248z" />
<glyph unicode="&#xc2;" horiz-adv-x="1129" d="M-8 0l613 1360h136l224 -1360h-131l-66 422h-458l-188 -422h-130zM359 532h391l-101 652zM396 1472l283 232h91l214 -232h-160l-116 117l-151 -117h-161z" />
<glyph unicode="&#xc3;" horiz-adv-x="1129" d="M-8 0l613 1360h136l224 -1360h-131l-66 422h-458l-188 -422h-130zM359 532h391l-101 652zM370 1548q15 35 36.5 63t45.5 48t49.5 33t47.5 18q28 5 52 0.5t45 -15.5t39.5 -26t36.5 -31q21 -24 43 -32t38 -10q26 0 58 24.5t52 71.5l74 -66q-16 -36 -37.5 -64t-45.5 -48 t-48.5 -32t-46.5 -16q-16 -4 -34 -4q-22 0 -41 6.5t-36 17t-32.5 23.5t-30.5 27q-24 23 -45 33.5t-37 10.5q-14 -1 -25.5 -4.5t-24 -13.5t-26.5 -28t-32 -46z" />
<glyph unicode="&#xc4;" horiz-adv-x="1129" d="M-8 0l613 1360h136l224 -1360h-131l-66 422h-458l-188 -422h-130zM359 532h391l-101 652zM396 1472l19 170h167l-19 -170h-167zM793 1472l19 170h169l-19 -170h-169z" />
<glyph unicode="&#xc5;" horiz-adv-x="1129" d="M-8 0l613 1360h136l224 -1360h-131l-66 422h-458l-188 -422h-130zM359 532h391l-101 652zM522 1637q0 8 0.5 14.5t1.5 14.5q6 41 25.5 76.5t48 61.5t63 41t71.5 15q32 0 59.5 -13t48 -35t32.5 -52.5t12 -64.5v-15q0 -6 -2 -14q-6 -42 -25.5 -76.5t-47.5 -59t-62.5 -38.5 t-70.5 -14q-32 0 -60 12t-49 33t-33 50t-12 64zM632 1666q-5 -32 14 -55t46 -23q31 0 53.5 23t27.5 55q5 34 -10.5 59t-46.5 25q-14 0 -27.5 -7t-25.5 -18.5t-20.5 -27t-10.5 -31.5z" />
<glyph unicode="&#xc6;" horiz-adv-x="1622" d="M22 2l319 470l1 8h4l599 880h686l-16 -110h-515l-71 -492h460l-16 -110h-460l-78 -538h514l-15 -110h-644l54 370h-421l-249 -370zM498 480h362l99 681z" />
<glyph unicode="&#xc7;" horiz-adv-x="982" d="M111 518q0 78 12 164q24 163 78 292.5t133.5 219.5t181 138t219.5 48q83 0 141 -22t96 -49l-54 -95q-38 26 -90.5 41t-112.5 15q-81 0 -155.5 -34t-135.5 -105.5t-106 -183t-67 -265.5q-8 -51 -11 -95.5t-3 -86.5q0 -109 23.5 -187t67 -127.5t105 -72.5t136.5 -23 q36 0 69.5 6.5t62.5 16t54 20.5t45 21l19 -92q-48 -35 -117.5 -58.5t-162.5 -23.5q-99 0 -178.5 38t-135 108t-85 169.5t-29.5 222.5zM298 -274q56 1 95 17t64 42t36 60t11 72q0 52 -19 107l124 -12q6 -21 9.5 -42t3.5 -43q0 -56 -20.5 -109.5t-60.5 -94.5t-99 -64.5 t-135 -18.5z" />
<glyph unicode="&#xc8;" horiz-adv-x="911" d="M87 0l197 1360h643l-16 -110h-514l-72 -492h460l-16 -110h-460l-78 -538h515l-16 -110h-643zM358 1718l151 66l148 -280l-101 -34z" />
<glyph unicode="&#xc9;" horiz-adv-x="911" d="M87 0l197 1360h643l-16 -110h-514l-72 -492h460l-16 -110h-460l-78 -538h515l-16 -110h-643zM531 1512l209 274l138 -66l-253 -248z" />
<glyph unicode="&#xca;" horiz-adv-x="911" d="M87 0l197 1360h643l-16 -110h-514l-72 -492h460l-16 -110h-460l-78 -538h515l-16 -110h-643zM327 1470l283 232h91l214 -232h-160l-116 117l-151 -117h-161z" />
<glyph unicode="&#xcb;" horiz-adv-x="911" d="M87 0l197 1360h643l-16 -110h-514l-72 -492h460l-16 -110h-460l-78 -538h515l-16 -110h-643zM327 1470l19 170h167l-19 -170h-167zM724 1470l19 170h169l-19 -170h-169z" />
<glyph unicode="&#xcc;" horiz-adv-x="712" d="M41 0l16 110h166l165 1140h-166l16 110h455l-16 -110h-161l-166 -1140h162l-16 -110h-455zM229 1718l151 66l148 -280l-101 -34z" />
<glyph unicode="&#xcd;" horiz-adv-x="712" d="M41 0l16 110h166l165 1140h-166l16 110h455l-16 -110h-161l-166 -1140h162l-16 -110h-455zM402 1512l209 274l138 -66l-253 -248z" />
<glyph unicode="&#xce;" horiz-adv-x="712" d="M41 0l16 110h166l165 1140h-166l16 110h455l-16 -110h-161l-166 -1140h162l-16 -110h-455zM198 1470l283 232h91l214 -232h-160l-116 117l-151 -117h-161z" />
<glyph unicode="&#xcf;" horiz-adv-x="712" d="M41 0l16 110h166l165 1140h-166l16 110h455l-16 -110h-161l-166 -1140h162l-16 -110h-455zM198 1470l19 170h167l-19 -170h-167zM595 1470l19 170h169l-19 -170h-169z" />
<glyph unicode="&#xd0;" horiz-adv-x="1195" d="M106 666l16 110h124l85 584h334q105 0 189 -37t143 -105.5t90.5 -166.5t31.5 -220q0 -35 -2.5 -72.5t-8.5 -76.5q-23 -158 -79.5 -284.5t-140 -215t-190.5 -135.5t-230 -47h-334l96 666h-124zM278 110h188q91 0 175 33.5t152 103.5t117 178t70 257q7 45 10 85t3 77 q0 109 -26 186t-73.5 126t-114 71.5t-147.5 22.5h-188l-69 -474h246l-16 -110h-246z" />
<glyph unicode="&#xd1;" horiz-adv-x="1226" d="M87 0l197 1360h128l467 -1123l163 1123h129l-197 -1360h-129l-469 1111l-161 -1111h-128zM408 1546q15 35 36.5 63t45.5 48t49.5 33t47.5 18q28 5 52 0.5t45 -15.5t39.5 -26t36.5 -31q21 -24 43 -32t38 -10q26 0 58 24.5t52 71.5l74 -66q-16 -36 -37.5 -64t-45.5 -48 t-48.5 -32t-46.5 -16q-16 -4 -34 -4q-22 0 -41 6.5t-36 17t-32.5 23.5t-30.5 27q-24 23 -45 33.5t-37 10.5q-14 -1 -25.5 -4.5t-24 -13.5t-26.5 -28t-32 -46z" />
<glyph unicode="&#xd2;" horiz-adv-x="1185" d="M106 504q0 42 3 85.5t10 90.5q24 166 77.5 296t129.5 220t171 137t201 47q88 0 162 -37t127 -106t82.5 -168.5t29.5 -224.5q0 -77 -12 -164q-24 -167 -80 -297t-135 -219.5t-175.5 -136.5t-201.5 -47q-88 0 -160 35.5t-123 103t-78.5 165t-27.5 220.5zM233 486 q0 -103 20 -177.5t56.5 -123t87.5 -72t114 -23.5q75 0 146 36t131 109t104.5 184t66.5 261q15 102 15 185q0 105 -21.5 181.5t-60 126t-92.5 73.5t-118 24q-74 0 -142.5 -36t-126 -109t-100.5 -184t-65 -261q-15 -108 -15 -194zM456 1736l151 66l148 -280l-101 -34z" />
<glyph unicode="&#xd3;" horiz-adv-x="1185" d="M106 504q0 42 3 85.5t10 90.5q24 166 77.5 296t129.5 220t171 137t201 47q88 0 162 -37t127 -106t82.5 -168.5t29.5 -224.5q0 -77 -12 -164q-24 -167 -80 -297t-135 -219.5t-175.5 -136.5t-201.5 -47q-88 0 -160 35.5t-123 103t-78.5 165t-27.5 220.5zM233 486 q0 -103 20 -177.5t56.5 -123t87.5 -72t114 -23.5q75 0 146 36t131 109t104.5 184t66.5 261q15 102 15 185q0 105 -21.5 181.5t-60 126t-92.5 73.5t-118 24q-74 0 -142.5 -36t-126 -109t-100.5 -184t-65 -261q-15 -108 -15 -194zM628 1530l209 274l138 -66l-253 -248z" />
<glyph unicode="&#xd4;" horiz-adv-x="1185" d="M106 504q0 42 3 85.5t10 90.5q24 166 77.5 296t129.5 220t171 137t201 47q88 0 162 -37t127 -106t82.5 -168.5t29.5 -224.5q0 -77 -12 -164q-24 -167 -80 -297t-135 -219.5t-175.5 -136.5t-201.5 -47q-88 0 -160 35.5t-123 103t-78.5 165t-27.5 220.5zM233 486 q0 -103 20 -177.5t56.5 -123t87.5 -72t114 -23.5q75 0 146 36t131 109t104.5 184t66.5 261q15 102 15 185q0 105 -21.5 181.5t-60 126t-92.5 73.5t-118 24q-74 0 -142.5 -36t-126 -109t-100.5 -184t-65 -261q-15 -108 -15 -194zM425 1488l283 232h91l214 -232h-160l-116 117 l-151 -117h-161z" />
<glyph unicode="&#xd5;" horiz-adv-x="1185" d="M106 504q0 42 3 85.5t10 90.5q24 166 77.5 296t129.5 220t171 137t201 47q88 0 162 -37t127 -106t82.5 -168.5t29.5 -224.5q0 -77 -12 -164q-24 -167 -80 -297t-135 -219.5t-175.5 -136.5t-201.5 -47q-88 0 -160 35.5t-123 103t-78.5 165t-27.5 220.5zM233 486 q0 -103 20 -177.5t56.5 -123t87.5 -72t114 -23.5q75 0 146 36t131 109t104.5 184t66.5 261q15 102 15 185q0 105 -21.5 181.5t-60 126t-92.5 73.5t-118 24q-74 0 -142.5 -36t-126 -109t-100.5 -184t-65 -261q-15 -108 -15 -194zM399 1564q15 35 36.5 63t45.5 48t49.5 33 t47.5 18q28 5 52 0.5t45 -15.5t39.5 -26t36.5 -31q21 -24 43 -32t38 -10q26 0 58 24.5t52 71.5l74 -66q-16 -36 -37.5 -64t-45.5 -48t-48.5 -32t-46.5 -16q-16 -4 -34 -4q-22 0 -41 6.5t-36 17t-32.5 23.5t-30.5 27q-24 23 -45 33.5t-37 10.5q-14 -1 -25.5 -4.5t-24 -13.5 t-26.5 -28t-32 -46z" />
<glyph unicode="&#xd6;" horiz-adv-x="1185" d="M106 504q0 42 3 85.5t10 90.5q24 166 77.5 296t129.5 220t171 137t201 47q88 0 162 -37t127 -106t82.5 -168.5t29.5 -224.5q0 -77 -12 -164q-24 -167 -80 -297t-135 -219.5t-175.5 -136.5t-201.5 -47q-88 0 -160 35.5t-123 103t-78.5 165t-27.5 220.5zM233 486 q0 -103 20 -177.5t56.5 -123t87.5 -72t114 -23.5q75 0 146 36t131 109t104.5 184t66.5 261q15 102 15 185q0 105 -21.5 181.5t-60 126t-92.5 73.5t-118 24q-74 0 -142.5 -36t-126 -109t-100.5 -184t-65 -261q-15 -108 -15 -194zM424 1488l19 170h167l-19 -170h-167z M821 1488l19 170h169l-19 -170h-169z" />
<glyph unicode="&#xd7;" horiz-adv-x="885" d="M52 298l310 293l-224 293l93 80l221 -288l307 288l68 -84l-308 -290l224 -290l-92 -84l-222 289l-306 -289z" />
<glyph unicode="&#xd8;" horiz-adv-x="1088" d="M-37 -2l156 198q-58 124 -58 302q0 43 3.5 88t10.5 94q24 166 77.5 296t129.5 220t170.5 137t200.5 47q88 0 161.5 -35.5t126.5 -101.5l92 117h118l-158 -201q31 -63 47 -140.5t16 -170.5q0 -40 -3.5 -81.5t-9.5 -86.5q-24 -167 -80 -297t-135 -219.5t-175.5 -136.5 t-202.5 -47q-86 0 -157.5 33.5t-122.5 97.5l-88 -113h-119zM189 493q0 -105 21 -181l654 833q-39 63 -96.5 94t-129.5 31q-74 0 -143 -36t-126.5 -109t-100.5 -184t-65 -261q-8 -53 -11 -99t-3 -88zM250 212q36 -62 91 -92t125 -30q75 0 146.5 36t131.5 109t104.5 184 t66.5 261q8 51 11 95t3 84q0 108 -24 188z" />
<glyph unicode="&#xd9;" horiz-adv-x="1203" d="M138 319q0 37 6 79l140 962h128l-139 -962q-2 -17 -3.5 -32.5t-1.5 -30.5q0 -60 18 -106t52 -77t81.5 -46.5t106.5 -15.5q65 0 124 20.5t106 60t79 96.5t43 131l139 962h129l-139 -960q-15 -104 -58 -182.5t-108.5 -131t-149.5 -79.5t-181 -27q-84 0 -152.5 22.5 t-117.5 65.5t-75.5 106t-26.5 145zM460 1718l151 66l148 -280l-101 -34z" />
<glyph unicode="&#xda;" horiz-adv-x="1203" d="M138 319q0 37 6 79l140 962h128l-139 -962q-2 -17 -3.5 -32.5t-1.5 -30.5q0 -60 18 -106t52 -77t81.5 -46.5t106.5 -15.5q65 0 124 20.5t106 60t79 96.5t43 131l139 962h129l-139 -960q-15 -104 -58 -182.5t-108.5 -131t-149.5 -79.5t-181 -27q-84 0 -152.5 22.5 t-117.5 65.5t-75.5 106t-26.5 145zM632 1512l209 274l138 -66l-253 -248z" />
<glyph unicode="&#xdb;" horiz-adv-x="1203" d="M138 319q0 37 6 79l140 962h128l-139 -962q-2 -17 -3.5 -32.5t-1.5 -30.5q0 -60 18 -106t52 -77t81.5 -46.5t106.5 -15.5q65 0 124 20.5t106 60t79 96.5t43 131l139 962h129l-139 -960q-15 -104 -58 -182.5t-108.5 -131t-149.5 -79.5t-181 -27q-84 0 -152.5 22.5 t-117.5 65.5t-75.5 106t-26.5 145zM429 1470l283 232h91l214 -232h-160l-116 117l-151 -117h-161z" />
<glyph unicode="&#xdc;" horiz-adv-x="1203" d="M138 319q0 37 6 79l140 962h128l-139 -962q-2 -17 -3.5 -32.5t-1.5 -30.5q0 -60 18 -106t52 -77t81.5 -46.5t106.5 -15.5q65 0 124 20.5t106 60t79 96.5t43 131l139 962h129l-139 -960q-15 -104 -58 -182.5t-108.5 -131t-149.5 -79.5t-181 -27q-84 0 -152.5 22.5 t-117.5 65.5t-75.5 106t-26.5 145zM429 1470l19 170h167l-19 -170h-167zM826 1470l19 170h169l-19 -170h-169z" />
<glyph unicode="&#xdd;" horiz-adv-x="983" d="M181 1360h138l177 -712l386 712h137l-480 -870l-71 -490h-128l71 486zM539 1512l209 274l138 -66l-253 -248z" />
<glyph unicode="&#xde;" horiz-adv-x="961" d="M37 0l197 1360h127l-47 -324h243q80 0 142.5 -20.5t105 -58.5t65 -92.5t22.5 -122.5q0 -16 -1.5 -32.5t-3.5 -33.5q-12 -85 -47 -152.5t-90.5 -114.5t-130.5 -72t-166 -25h-244l-46 -312h-126zM225 422h224q60 0 112.5 15t93 46.5t67.5 79.5t36 113q2 14 3 27.5t1 26.5 q0 52 -17 89t-48 61t-75.5 35t-99.5 11h-224z" />
<glyph unicode="&#xdf;" horiz-adv-x="1043" d="M11 -192l169 1170q14 93 50 171t91 134.5t127.5 87.5t159.5 31q140 0 210.5 -55t70.5 -161q0 -12 -1 -25t-3 -27q-5 -35 -14 -62t-21 -48.5t-25.5 -39.5t-28.5 -34q-31 -42 -52 -85.5t-29 -94.5q-8 -54 15.5 -93t65.5 -79q21 -21 41.5 -44t36 -50.5t25.5 -61t10 -74.5 q0 -12 -1 -24t-3 -26q-14 -95 -54.5 -161.5t-98 -108.5t-126 -61t-137.5 -19q-33 0 -64 3.5t-58.5 8t-50 10t-36.5 10.5l39 112q28 -11 73 -22.5t114 -11.5q45 0 89.5 13.5t81.5 41.5t63 71.5t35 103.5q5 31 -2.5 58t-21.5 50.5t-31 43.5t-31 38q-22 23 -41.5 46.5t-33.5 50 t-22.5 56.5t-8.5 67q0 12 1 25t3 27q10 73 35 130t70 117q7 10 17.5 24.5t20 30.5t17.5 32.5t10 31.5q10 70 -32 113t-140 43q-52 0 -98 -24t-82.5 -66t-61.5 -99.5t-35 -124.5l-170 -1170h-127z" />
<glyph unicode="&#xe0;" horiz-adv-x="938" d="M81 284q0 29 2.5 60.5t7.5 65.5q20 136 65 248.5t107 192.5t135.5 124.5t150.5 44.5q72 0 116.5 -18.5t80.5 -53.5l36 52h87l-145 -1000h-117l9 134q-61 -73 -132 -113.5t-169 -40.5q-112 0 -173 77.5t-61 226.5zM210 300q0 -110 42 -160t120 -50q33 0 67 12t67 32.5 t64.5 49t60.5 61.5l90 624q-32 16 -72 28.5t-85 12.5q-57 0 -111.5 -35t-101 -100t-81.5 -157.5t-51 -207.5q-9 -62 -9 -110zM299 1398l151 66l148 -280l-101 -34z" />
<glyph unicode="&#xe1;" horiz-adv-x="938" d="M81 284q0 29 2.5 60.5t7.5 65.5q20 136 65 248.5t107 192.5t135.5 124.5t150.5 44.5q72 0 116.5 -18.5t80.5 -53.5l36 52h87l-145 -1000h-117l9 134q-61 -73 -132 -113.5t-169 -40.5q-112 0 -173 77.5t-61 226.5zM210 300q0 -110 42 -160t120 -50q33 0 67 12t67 32.5 t64.5 49t60.5 61.5l90 624q-32 16 -72 28.5t-85 12.5q-57 0 -111.5 -35t-101 -100t-81.5 -157.5t-51 -207.5q-9 -62 -9 -110zM472 1192l209 274l138 -66l-253 -248z" />
<glyph unicode="&#xe2;" horiz-adv-x="938" d="M81 284q0 29 2.5 60.5t7.5 65.5q20 136 65 248.5t107 192.5t135.5 124.5t150.5 44.5q72 0 116.5 -18.5t80.5 -53.5l36 52h87l-145 -1000h-117l9 134q-61 -73 -132 -113.5t-169 -40.5q-112 0 -173 77.5t-61 226.5zM210 300q0 -110 42 -160t120 -50q33 0 67 12t67 32.5 t64.5 49t60.5 61.5l90 624q-32 16 -72 28.5t-85 12.5q-57 0 -111.5 -35t-101 -100t-81.5 -157.5t-51 -207.5q-9 -62 -9 -110zM268 1150l283 232h91l214 -232h-160l-116 117l-151 -117h-161z" />
<glyph unicode="&#xe3;" horiz-adv-x="938" d="M81 284q0 29 2.5 60.5t7.5 65.5q20 136 65 248.5t107 192.5t135.5 124.5t150.5 44.5q72 0 116.5 -18.5t80.5 -53.5l36 52h87l-145 -1000h-117l9 134q-61 -73 -132 -113.5t-169 -40.5q-112 0 -173 77.5t-61 226.5zM210 300q0 -110 42 -160t120 -50q33 0 67 12t67 32.5 t64.5 49t60.5 61.5l90 624q-32 16 -72 28.5t-85 12.5q-57 0 -111.5 -35t-101 -100t-81.5 -157.5t-51 -207.5q-9 -62 -9 -110zM242 1226q15 35 36.5 63t45.5 48t49.5 33t47.5 18q28 5 52 0.5t45 -15.5t39.5 -26t36.5 -31q21 -24 43 -32t38 -10q26 0 58 24.5t52 71.5l74 -66 q-16 -36 -37.5 -64t-45.5 -48t-48.5 -32t-46.5 -16q-16 -4 -34 -4q-22 0 -41 6.5t-36 17t-32.5 23.5t-30.5 27q-24 23 -45 33.5t-37 10.5q-14 -1 -25.5 -4.5t-24 -13.5t-26.5 -28t-32 -46z" />
<glyph unicode="&#xe4;" horiz-adv-x="938" d="M81 284q0 29 2.5 60.5t7.5 65.5q20 136 65 248.5t107 192.5t135.5 124.5t150.5 44.5q72 0 116.5 -18.5t80.5 -53.5l36 52h87l-145 -1000h-117l9 134q-61 -73 -132 -113.5t-169 -40.5q-112 0 -173 77.5t-61 226.5zM210 300q0 -110 42 -160t120 -50q33 0 67 12t67 32.5 t64.5 49t60.5 61.5l90 624q-32 16 -72 28.5t-85 12.5q-57 0 -111.5 -35t-101 -100t-81.5 -157.5t-51 -207.5q-9 -62 -9 -110zM268 1151l19 170h167l-19 -170h-167zM665 1151l19 170h169l-19 -170h-169z" />
<glyph unicode="&#xe5;" horiz-adv-x="938" d="M81 284q0 29 2.5 60.5t7.5 65.5q20 136 65 248.5t107 192.5t135.5 124.5t150.5 44.5q72 0 116.5 -18.5t80.5 -53.5l36 52h87l-145 -1000h-117l9 134q-61 -73 -132 -113.5t-169 -40.5q-112 0 -173 77.5t-61 226.5zM210 300q0 -110 42 -160t120 -50q33 0 67 12t67 32.5 t64.5 49t60.5 61.5l90 624q-32 16 -72 28.5t-85 12.5q-57 0 -111.5 -35t-101 -100t-81.5 -157.5t-51 -207.5q-9 -62 -9 -110zM394 1316q0 8 0.5 14.5t1.5 14.5q6 41 25.5 76.5t48 61.5t63 41t71.5 15q32 0 59.5 -13t48 -35t32.5 -52.5t12 -64.5v-15q0 -6 -2 -14 q-6 -42 -25.5 -76.5t-47.5 -59t-62.5 -38.5t-70.5 -14q-32 0 -60 12t-49 33t-33 50t-12 64zM504 1345q-5 -32 14 -55t46 -23q31 0 53.5 23t27.5 55q5 34 -10.5 59t-46.5 25q-14 0 -27.5 -7t-25.5 -18.5t-20.5 -27t-10.5 -31.5z" />
<glyph unicode="&#xe6;" horiz-adv-x="1482" d="M58 208q0 14 1 28.5t3 29.5q9 63 40.5 115.5t79.5 90.5t109 59t130 21h230l11 70q9 60 9 105q0 51 -11 84t-32.5 52.5t-53.5 27t-74 7.5q-32 0 -69 -6.5t-73 -16.5t-68.5 -22.5t-55.5 -24.5l-25 102q32 18 71 34.5t80.5 28.5t84.5 19.5t84 7.5q49 0 90.5 -7.5t74.5 -25.5 t57 -47.5t36 -73.5q60 75 138 114.5t172 39.5q62 0 113.5 -20.5t89 -60t58.5 -97.5t21 -133q0 -40 -6 -83l-16 -110h-581l-4 -24q-5 -34 -7.5 -64.5t-2.5 -59.5q0 -137 57 -207.5t173 -70.5q44 0 81 6.5t68.5 16t56.5 20.5t45 21l20 -102q-55 -33 -129 -52.5t-156 -19.5 q-100 0 -172.5 35.5t-115.5 103.5q-28 -19 -67 -43t-90 -45.5t-114.5 -36t-141.5 -14.5q-56 0 -97 17t-68 47.5t-40.5 72.5t-13.5 91zM185 216q0 -65 39 -95.5t100 -30.5q45 0 86.5 9t77 22.5t63.5 28.5t46 28l40 276h-211q-59 0 -101.5 -15.5t-71 -43t-44.5 -65t-22 -82.5 q-2 -8 -2 -16v-16zM799 626h445q6 43 6 80q0 55 -13 94t-35.5 63.5t-52.5 35.5t-64 11q-48 0 -91 -14t-79.5 -47t-65.5 -87.5t-50 -135.5z" />
<glyph unicode="&#xe7;" horiz-adv-x="823" d="M93 385q0 55 9 117q18 121 59 217t102.5 163t141 102.5t174.5 35.5q76 0 132 -14t91 -40l-57 -98q-14 7 -29.5 14.5t-35 13.5t-45 10t-59.5 4q-63 0 -119 -23.5t-101.5 -73t-78 -127t-47.5 -184.5q-5 -35 -7.5 -67.5t-2.5 -61.5q0 -75 16.5 -129t46.5 -88t73.5 -50 t97.5 -16q70 0 124 16.5t95 37.5l28 -98q-45 -32 -108 -49t-144 -17q-84 0 -150.5 28.5t-112 81t-69.5 127.5t-24 168zM198 -274q56 1 95 17t64 42t36 60t11 72q0 52 -19 107l124 -12q6 -21 9.5 -42t3.5 -43q0 -56 -20.5 -109.5t-60.5 -94.5t-99 -64.5t-135 -18.5z" />
<glyph unicode="&#xe8;" horiz-adv-x="944" d="M88 364q0 30 2.5 62t7.5 66q19 129 59 227.5t98 165.5t132.5 101t163.5 34q62 0 114 -20.5t89.5 -59.5t58 -96.5t20.5 -132.5q0 -40 -6 -85l-16 -110h-580l-4 -24q-5 -34 -7.5 -64.5t-2.5 -59.5q0 -137 57 -207.5t172 -70.5q44 0 81.5 6.5t68.5 16t56 20.5t45 21l21 -102 q-55 -33 -129 -52.5t-156 -19.5q-168 0 -256.5 99.5t-88.5 284.5zM253 626h446q6 43 6 79q0 55 -13 94t-35.5 64t-53 36t-64.5 11q-48 0 -91 -14t-79.5 -47t-65.5 -87.5t-50 -135.5zM317 1398l151 66l148 -280l-101 -34z" />
<glyph unicode="&#xe9;" horiz-adv-x="944" d="M88 364q0 30 2.5 62t7.5 66q19 129 59 227.5t98 165.5t132.5 101t163.5 34q62 0 114 -20.5t89.5 -59.5t58 -96.5t20.5 -132.5q0 -40 -6 -85l-16 -110h-580l-4 -24q-5 -34 -7.5 -64.5t-2.5 -59.5q0 -137 57 -207.5t172 -70.5q44 0 81.5 6.5t68.5 16t56 20.5t45 21l21 -102 q-55 -33 -129 -52.5t-156 -19.5q-168 0 -256.5 99.5t-88.5 284.5zM253 626h446q6 43 6 79q0 55 -13 94t-35.5 64t-53 36t-64.5 11q-48 0 -91 -14t-79.5 -47t-65.5 -87.5t-50 -135.5zM490 1192l209 274l138 -66l-253 -248z" />
<glyph unicode="&#xea;" horiz-adv-x="944" d="M88 364q0 30 2.5 62t7.5 66q19 129 59 227.5t98 165.5t132.5 101t163.5 34q62 0 114 -20.5t89.5 -59.5t58 -96.5t20.5 -132.5q0 -40 -6 -85l-16 -110h-580l-4 -24q-5 -34 -7.5 -64.5t-2.5 -59.5q0 -137 57 -207.5t172 -70.5q44 0 81.5 6.5t68.5 16t56 20.5t45 21l21 -102 q-55 -33 -129 -52.5t-156 -19.5q-168 0 -256.5 99.5t-88.5 284.5zM253 626h446q6 43 6 79q0 55 -13 94t-35.5 64t-53 36t-64.5 11q-48 0 -91 -14t-79.5 -47t-65.5 -87.5t-50 -135.5zM286 1150l283 232h91l214 -232h-160l-116 117l-151 -117h-161z" />
<glyph unicode="&#xeb;" horiz-adv-x="944" d="M88 364q0 30 2.5 62t7.5 66q19 129 59 227.5t98 165.5t132.5 101t163.5 34q62 0 114 -20.5t89.5 -59.5t58 -96.5t20.5 -132.5q0 -40 -6 -85l-16 -110h-580l-4 -24q-5 -34 -7.5 -64.5t-2.5 -59.5q0 -137 57 -207.5t172 -70.5q44 0 81.5 6.5t68.5 16t56 20.5t45 21l21 -102 q-55 -33 -129 -52.5t-156 -19.5q-168 0 -256.5 99.5t-88.5 284.5zM253 626h446q6 43 6 79q0 55 -13 94t-35.5 64t-53 36t-64.5 11q-48 0 -91 -14t-79.5 -47t-65.5 -87.5t-50 -135.5zM286 1151l19 170h167l-19 -170h-167zM683 1151l19 170h169l-19 -170h-169z" />
<glyph unicode="&#xec;" horiz-adv-x="330" d="M18 0l145 1000h128l-145 -1000h-128zM8 1385l151 66l148 -280l-101 -34z" />
<glyph unicode="&#xed;" horiz-adv-x="330" d="M18 0l145 1000h128l-145 -1000h-128zM181 1179l209 274l138 -66l-253 -248z" />
<glyph unicode="&#xee;" horiz-adv-x="330" d="M18 0l145 1000h128l-145 -1000h-128zM-23 1138l283 232h91l214 -232h-160l-116 117l-151 -117h-161z" />
<glyph unicode="&#xef;" horiz-adv-x="330" d="M18 0l145 1000h128l-145 -1000h-128zM-23 1138l19 170h167l-19 -170h-167zM374 1138l19 170h169l-19 -170h-169z" />
<glyph unicode="&#xf0;" horiz-adv-x="1027" d="M92 363q0 29 3 59q13 106 47.5 191.5t88.5 145t127 91.5t163 32q41 0 82.5 -11t78 -32t66.5 -51t49 -67q2 26 3 51t1 48q0 90 -13.5 160.5t-39.5 123.5l-211 -106l-33 90l190 95q-42 45 -97 66t-123 21l29 110q94 0 172 -36t132 -105l199 99l33 -88l-181 -91 q35 -71 53 -160t18 -196q0 -49 -4 -100.5t-12 -106.5q-21 -143 -63.5 -256.5t-105 -192.5t-144 -121t-179.5 -42q-82 0 -143.5 32t-103 85t-62 121t-20.5 141zM220 344q0 -53 12 -98.5t37 -79t62.5 -53t88.5 -19.5q66 0 123.5 28t104 87t80 151t53.5 220q-22 57 -53.5 94 t-68 58.5t-77 30.5t-80.5 9q-59 0 -106 -29t-81.5 -78t-57 -114t-32.5 -137q-2 -18 -3.5 -35.5t-1.5 -34.5z" />
<glyph unicode="&#xf1;" horiz-adv-x="1014" d="M83 0l145 1000h115l-7 -112q144 132 308 132q114 0 170.5 -59.5t56.5 -187.5q0 -50 -9 -111l-96 -662h-127l96 662q4 26 5.5 49t1.5 43q0 45 -9 75t-27 48t-44.5 25.5t-60.5 7.5q-74 0 -145 -33.5t-131 -86.5l-115 -790h-127zM271 1226q15 35 36.5 63t45.5 48t49.5 33 t47.5 18q28 5 52 0.5t45 -15.5t39.5 -26t36.5 -31q21 -24 43 -32t38 -10q26 0 58 24.5t52 71.5l74 -66q-16 -36 -37.5 -64t-45.5 -48t-48.5 -32t-46.5 -16q-16 -4 -34 -4q-22 0 -41 6.5t-36 17t-32.5 23.5t-30.5 27q-24 23 -45 33.5t-37 10.5q-14 -1 -25.5 -4.5t-24 -13.5 t-26.5 -28t-32 -46z" />
<glyph unicode="&#xf2;" d="M91 371q0 30 2.5 62.5t7.5 66.5q18 124 58.5 221t100 163.5t136 101t165.5 34.5q75 0 136 -27.5t104.5 -79t67.5 -126t24 -168.5q0 -56 -9 -119q-18 -125 -61 -222t-105.5 -163t-141 -100.5t-166.5 -34.5q-75 0 -134 26.5t-100 76.5t-63 123t-22 165zM217 366 q0 -72 14.5 -124.5t42 -86t66 -49.5t86.5 -16q57 0 110 24.5t96.5 75t76 127.5t47.5 183q5 35 7.5 66.5t2.5 60.5q0 75 -16 128.5t-45.5 88t-70 50.5t-89.5 16q-56 0 -107 -24t-92.5 -74.5t-72 -128t-45.5 -183.5q-5 -38 -8 -71t-3 -63zM322 1396l151 66l148 -280l-101 -34z " />
<glyph unicode="&#xf3;" d="M91 371q0 30 2.5 62.5t7.5 66.5q18 124 58.5 221t100 163.5t136 101t165.5 34.5q75 0 136 -27.5t104.5 -79t67.5 -126t24 -168.5q0 -56 -9 -119q-18 -125 -61 -222t-105.5 -163t-141 -100.5t-166.5 -34.5q-75 0 -134 26.5t-100 76.5t-63 123t-22 165zM217 366 q0 -72 14.5 -124.5t42 -86t66 -49.5t86.5 -16q57 0 110 24.5t96.5 75t76 127.5t47.5 183q5 35 7.5 66.5t2.5 60.5q0 75 -16 128.5t-45.5 88t-70 50.5t-89.5 16q-56 0 -107 -24t-92.5 -74.5t-72 -128t-45.5 -183.5q-5 -38 -8 -71t-3 -63zM495 1190l209 274l138 -66l-253 -248 z" />
<glyph unicode="&#xf4;" d="M91 371q0 30 2.5 62.5t7.5 66.5q18 124 58.5 221t100 163.5t136 101t165.5 34.5q75 0 136 -27.5t104.5 -79t67.5 -126t24 -168.5q0 -56 -9 -119q-18 -125 -61 -222t-105.5 -163t-141 -100.5t-166.5 -34.5q-75 0 -134 26.5t-100 76.5t-63 123t-22 165zM217 366 q0 -72 14.5 -124.5t42 -86t66 -49.5t86.5 -16q57 0 110 24.5t96.5 75t76 127.5t47.5 183q5 35 7.5 66.5t2.5 60.5q0 75 -16 128.5t-45.5 88t-70 50.5t-89.5 16q-56 0 -107 -24t-92.5 -74.5t-72 -128t-45.5 -183.5q-5 -38 -8 -71t-3 -63zM291 1148l283 232h91l214 -232h-160 l-116 117l-151 -117h-161z" />
<glyph unicode="&#xf5;" d="M91 371q0 30 2.5 62.5t7.5 66.5q18 124 58.5 221t100 163.5t136 101t165.5 34.5q75 0 136 -27.5t104.5 -79t67.5 -126t24 -168.5q0 -56 -9 -119q-18 -125 -61 -222t-105.5 -163t-141 -100.5t-166.5 -34.5q-75 0 -134 26.5t-100 76.5t-63 123t-22 165zM217 366 q0 -72 14.5 -124.5t42 -86t66 -49.5t86.5 -16q57 0 110 24.5t96.5 75t76 127.5t47.5 183q5 35 7.5 66.5t2.5 60.5q0 75 -16 128.5t-45.5 88t-70 50.5t-89.5 16q-56 0 -107 -24t-92.5 -74.5t-72 -128t-45.5 -183.5q-5 -38 -8 -71t-3 -63zM265 1224q15 35 36.5 63t45.5 48 t49.5 33t47.5 18q28 5 52 0.5t45 -15.5t39.5 -26t36.5 -31q21 -24 43 -32t38 -10q26 0 58 24.5t52 71.5l74 -66q-16 -36 -37.5 -64t-45.5 -48t-48.5 -32t-46.5 -16q-16 -4 -34 -4q-22 0 -41 6.5t-36 17t-32.5 23.5t-30.5 27q-24 23 -45 33.5t-37 10.5q-14 -1 -25.5 -4.5 t-24 -13.5t-26.5 -28t-32 -46z" />
<glyph unicode="&#xf6;" d="M91 371q0 30 2.5 62.5t7.5 66.5q18 124 58.5 221t100 163.5t136 101t165.5 34.5q75 0 136 -27.5t104.5 -79t67.5 -126t24 -168.5q0 -56 -9 -119q-18 -125 -61 -222t-105.5 -163t-141 -100.5t-166.5 -34.5q-75 0 -134 26.5t-100 76.5t-63 123t-22 165zM217 366 q0 -72 14.5 -124.5t42 -86t66 -49.5t86.5 -16q57 0 110 24.5t96.5 75t76 127.5t47.5 183q5 35 7.5 66.5t2.5 60.5q0 75 -16 128.5t-45.5 88t-70 50.5t-89.5 16q-56 0 -107 -24t-92.5 -74.5t-72 -128t-45.5 -183.5q-5 -38 -8 -71t-3 -63zM291 1149l19 170h167l-19 -170h-167z M688 1149l19 170h169l-19 -170h-169z" />
<glyph unicode="&#xf7;" horiz-adv-x="886" d="M87 552l16 110h695l-16 -110h-695zM309 212l24 166h144l-24 -166h-144zM395 800l24 166h144l-24 -166h-144z" />
<glyph unicode="&#xf8;" horiz-adv-x="1002" d="M-10 0l126 148q-42 88 -42 219q0 32 2.5 65t7.5 68q18 124 59 221t100.5 163.5t136 101t165.5 34.5q71 0 131 -24.5t103 -71.5l65 76h127l-138 -160q44 -91 44 -221q0 -56 -9 -119q-18 -125 -61.5 -222t-105.5 -163t-140.5 -100.5t-166.5 -34.5q-69 0 -126 22t-97 64 l-57 -66h-124zM201 370q0 -60 11 -110l485 568q-29 42 -71.5 62t-96.5 20q-56 0 -107 -24t-92.5 -74.5t-72 -128t-45.5 -183.5q-5 -37 -8 -69t-3 -61zM253 163q27 -38 67 -55.5t90 -17.5q57 0 109.5 24.5t96.5 75t76.5 127.5t47.5 183q5 34 7.5 64.5t2.5 57.5q0 30 -3 56.5 t-8 50.5z" />
<glyph unicode="&#xf9;" horiz-adv-x="1014" d="M122 216q0 26 2.5 56.5t7.5 65.5l96 662h127l-96 -662q-4 -29 -6 -53.5t-2 -45.5q0 -84 33 -116.5t101 -32.5q71 0 144.5 33.5t139.5 87.5l115 789h127l-145 -1000h-122l13 114q-72 -64 -152 -99t-162 -35q-51 0 -92 11t-69.5 38t-44 72.5t-15.5 114.5zM325 1378l151 66 l148 -280l-101 -34z" />
<glyph unicode="&#xfa;" horiz-adv-x="1014" d="M122 216q0 26 2.5 56.5t7.5 65.5l96 662h127l-96 -662q-4 -29 -6 -53.5t-2 -45.5q0 -84 33 -116.5t101 -32.5q71 0 144.5 33.5t139.5 87.5l115 789h127l-145 -1000h-122l13 114q-72 -64 -152 -99t-162 -35q-51 0 -92 11t-69.5 38t-44 72.5t-15.5 114.5zM498 1172l209 274 l138 -66l-253 -248z" />
<glyph unicode="&#xfb;" horiz-adv-x="1014" d="M122 216q0 26 2.5 56.5t7.5 65.5l96 662h127l-96 -662q-4 -29 -6 -53.5t-2 -45.5q0 -84 33 -116.5t101 -32.5q71 0 144.5 33.5t139.5 87.5l115 789h127l-145 -1000h-122l13 114q-72 -64 -152 -99t-162 -35q-51 0 -92 11t-69.5 38t-44 72.5t-15.5 114.5zM294 1131l283 232 h91l214 -232h-160l-116 117l-151 -117h-161z" />
<glyph unicode="&#xfc;" horiz-adv-x="1014" d="M122 216q0 26 2.5 56.5t7.5 65.5l96 662h127l-96 -662q-4 -29 -6 -53.5t-2 -45.5q0 -84 33 -116.5t101 -32.5q71 0 144.5 33.5t139.5 87.5l115 789h127l-145 -1000h-122l13 114q-72 -64 -152 -99t-162 -35q-51 0 -92 11t-69.5 38t-44 72.5t-15.5 114.5zM294 1131l19 170 h167l-19 -170h-167zM691 1131l19 170h169l-19 -170h-169z" />
<glyph unicode="&#xfd;" horiz-adv-x="880" d="M-26 -394l29 106q4 0 13 -2t19.5 -4t20.5 -4t16 -2q31 0 54.5 10t46 37t48.5 76t61 127l-157 1050h132l110 -858l371 858h131l-469 -1050h1q-44 -106 -82 -175.5t-77.5 -110.5t-82.5 -57.5t-97 -16.5q-24 0 -47.5 4t-40.5 12zM437 1172l209 274l138 -66l-253 -248z" />
<glyph unicode="&#xfe;" horiz-adv-x="928" d="M-40 -400l261 1800h128l-69 -475q27 23 54.5 40.5t58.5 29.5t67.5 18.5t81.5 6.5q66 0 118.5 -26.5t89.5 -76.5t57 -121.5t20 -160.5q0 -31 -2.5 -63.5t-7.5 -67.5q-18 -121 -57 -218t-94.5 -165t-125.5 -104.5t-149 -36.5q-84 0 -138.5 23t-95.5 69l-69 -472h-128z M170 166q35 -33 85 -54.5t107 -21.5q133 0 215.5 107t111.5 307q5 38 8 72.5t3 65.5q0 135 -53.5 201.5t-165.5 66.5q-56 0 -112.5 -21.5t-101.5 -54.5z" />
<glyph unicode="&#xff;" horiz-adv-x="880" d="M-26 -394l29 106q4 0 13 -2t19.5 -4t20.5 -4t16 -2q31 0 54.5 10t46 37t48.5 76t61 127l-157 1050h132l110 -858l371 858h131l-469 -1050h1q-44 -106 -82 -175.5t-77.5 -110.5t-82.5 -57.5t-97 -16.5q-24 0 -47.5 4t-40.5 12zM233 1131l19 170h167l-19 -170h-167z M630 1131l19 170h169l-19 -170h-169z" />
<glyph unicode="&#x131;" horiz-adv-x="330" d="M18 0l145 1000h128l-145 -1000h-128z" />
<glyph unicode="&#x152;" horiz-adv-x="1471" d="M108 521q0 75 12 159q23 162 80 289t142.5 214.5t196.5 134t243 46.5q16 0 32.5 -0.5t30.5 -3.5h637l-16 -110h-515l-71 -492h460l-16 -110h-460l-78 -538h515l-16 -110h-619q-7 -1 -18.5 -2t-24.5 -1.5t-26 -0.5h-24q-111 0 -197.5 36t-146 104t-90.5 165.5t-31 219.5z M236 525q0 -200 90 -309.5t263 -109.5q11 0 30.5 1t38.5 4l164 1136q-13 3 -27 5t-29 2q-98 0 -184.5 -40.5t-154 -115.5t-114 -181t-65.5 -237q-12 -83 -12 -155z" />
<glyph unicode="&#x153;" horiz-adv-x="1581" d="M81 371q0 30 2.5 62.5t7.5 66.5q18 124 58.5 221t100 163.5t136 101t165.5 34.5q106 0 185 -54.5t117 -155.5q62 103 150 156.5t198 53.5q62 0 113.5 -20.5t89 -60t58.5 -97t21 -132.5q0 -39 -6 -84l-16 -110h-581l-3 -24q-5 -34 -7.5 -64.5t-2.5 -59.5q0 -137 57 -207.5 t172 -70.5q44 0 81.5 6.5t68.5 16t56 20.5t45 21l21 -102q-55 -33 -129 -52.5t-156 -19.5q-122 0 -204 53t-116 155q-67 -100 -160 -154t-202 -54q-75 0 -134 26.5t-100.5 76.5t-63.5 123t-22 165zM208 365q0 -72 14.5 -124t41.5 -85.5t65.5 -49.5t86.5 -16q57 0 110 24.5 t97 75t76.5 127.5t47.5 183q5 35 7.5 66t2.5 60q0 75 -16 129t-45.5 88.5t-70.5 50.5t-90 16q-56 0 -106.5 -24t-92 -74.5t-72 -128t-45.5 -183.5q-5 -38 -8 -71.5t-3 -63.5zM903 626h446q6 43 6 79q0 55 -13 94t-35.5 64t-53 36t-64.5 11q-48 0 -91 -14t-79.5 -47 t-65.5 -87.5t-50 -135.5z" />
<glyph unicode="&#x178;" horiz-adv-x="983" d="M181 1360h138l177 -712l386 712h137l-480 -870l-71 -490h-128l71 486zM335 1470l19 170h167l-19 -170h-167zM732 1470l19 170h169l-19 -170h-169z" />
<glyph unicode="&#x2c6;" horiz-adv-x="691" d="M153 1148l283 232h91l214 -232h-160l-116 117l-151 -117h-161z" />
<glyph unicode="&#x2da;" horiz-adv-x="549" d="M211 1393q0 8 0.5 14.5t1.5 14.5q6 41 25.5 76.5t48 61.5t63 41t71.5 15q32 0 59.5 -13t48 -35t32.5 -52.5t12 -64.5v-15q0 -6 -2 -14q-6 -42 -25.5 -76.5t-47.5 -59t-62.5 -38.5t-70.5 -14q-32 0 -60 12t-49 33t-33 50t-12 64zM321 1422q-5 -32 14 -55t46 -23 q31 0 53.5 23t27.5 55q5 34 -10.5 59t-46.5 25q-14 0 -27.5 -7t-25.5 -18.5t-20.5 -27t-10.5 -31.5z" />
<glyph unicode="&#x2dc;" horiz-adv-x="804" d="M172 1202q15 35 36.5 63t45.5 48t49.5 33t47.5 18q28 5 52 0.5t45 -15.5t39.5 -26t36.5 -31q21 -24 43 -32t38 -10q26 0 58 24.5t52 71.5l74 -66q-16 -36 -37.5 -64t-45.5 -48t-48.5 -32t-46.5 -16q-16 -4 -34 -4q-22 0 -41 6.5t-36 17t-32.5 23.5t-30.5 27 q-24 23 -45 33.5t-37 10.5q-14 -1 -25.5 -4.5t-24 -13.5t-26.5 -28t-32 -46z" />
<glyph unicode="&#x2000;" horiz-adv-x="930" />
<glyph unicode="&#x2001;" horiz-adv-x="1860" />
<glyph unicode="&#x2002;" horiz-adv-x="930" />
<glyph unicode="&#x2003;" horiz-adv-x="1860" />
<glyph unicode="&#x2004;" horiz-adv-x="620" />
<glyph unicode="&#x2005;" horiz-adv-x="465" />
<glyph unicode="&#x2006;" horiz-adv-x="310" />
<glyph unicode="&#x2007;" horiz-adv-x="310" />
<glyph unicode="&#x2008;" horiz-adv-x="232" />
<glyph unicode="&#x2009;" horiz-adv-x="372" />
<glyph unicode="&#x200a;" horiz-adv-x="103" />
<glyph unicode="&#x2010;" horiz-adv-x="660" d="M95 586l17 120h465l-18 -120h-464z" />
<glyph unicode="&#x2011;" horiz-adv-x="660" d="M95 586l17 120h465l-18 -120h-464z" />
<glyph unicode="&#x2012;" horiz-adv-x="660" d="M95 586l17 120h465l-18 -120h-464z" />
<glyph unicode="&#x2013;" horiz-adv-x="978" d="M75 610l16 110h825l-16 -110h-825z" />
<glyph unicode="&#x2014;" horiz-adv-x="1532" d="M90 610l16 110h1338l-16 -110h-1338z" />
<glyph unicode="&#x2018;" horiz-adv-x="394" d="M124 946l216 456l96 -20l-141 -436h-171z" />
<glyph unicode="&#x2019;" horiz-adv-x="394" d="M125 966l140 436h171l-213 -456z" />
<glyph unicode="&#x201a;" horiz-adv-x="491" d="M-10 -232l115 390h141l-168 -404z" />
<glyph unicode="&#x201c;" horiz-adv-x="633" d="M595.008 1382.06l-139.991 -435.973h-170.99l212.987 455.972zM844.008 1382.06l-139.991 -435.973h-170.99l212.987 455.972z" />
<glyph unicode="&#x201d;" horiz-adv-x="633" d="M135 966l140 436h171l-213 -456zM380 966l140 436h171l-213 -456z" />
<glyph unicode="&#x201e;" horiz-adv-x="650" d="M-10 -232l115 390h141l-168 -404zM224 -232l115 390h141l-168 -404z" />
<glyph unicode="&#x2022;" horiz-adv-x="577" d="M117 656v16q0 8 2 16q6 42 25 79t47 64.5t63.5 43t74.5 15.5q33 0 61.5 -13t49 -36.5t32 -54.5t11.5 -67v-15q0 -8 -2 -16q-6 -42 -25.5 -78.5t-48 -63.5t-64 -42.5t-72.5 -15.5q-34 0 -62.5 13t-48.5 35.5t-31.5 53t-11.5 66.5z" />
<glyph unicode="&#x2026;" horiz-adv-x="1308" d="M57 0l19 132h145l-19 -132h-145zM503 0l19 132h145l-19 -132h-145zM963 0l19 132h145l-19 -132h-145z" />
<glyph unicode="&#x202f;" horiz-adv-x="372" />
<glyph unicode="&#x2039;" horiz-adv-x="541" d="M67 434l12 84l344 400l62 -70l-289 -372l182 -364l-82 -70z" />
<glyph unicode="&#x203a;" horiz-adv-x="541" d="M15 112l289 371l-183 365l84 70l228 -392l-13 -84l-342 -400z" />
<glyph unicode="&#x2044;" horiz-adv-x="930" d="M-79 0l966 1360h101l-963 -1360h-104z" />
<glyph unicode="&#x205f;" horiz-adv-x="465" />
<glyph unicode="&#x2074;" horiz-adv-x="631" d="M68 824l9 66l411 490h103l-68 -468h87l-13 -88h-87l-22 -156h-98l23 156h-345zM196 912h229l49 333z" />
<glyph unicode="&#x20ac;" horiz-adv-x="997" d="M63 496l16 110h153q3 36 9 76q3 22 6.5 42.5t7.5 41.5h-153l16 110h164q33 116 81.5 209.5t110.5 159t135.5 100.5t154.5 35q83 0 142 -22.5t99 -49.5l-57 -94q-40 26 -92 41t-113 15q-51 0 -99.5 -23t-91.5 -71t-79.5 -122.5t-63.5 -177.5h451l-16 -110h-460 q-4 -20 -7.5 -41t-6.5 -43q-3 -21 -5 -39.5t-4 -36.5h460l-16 -110h-452q-2 -105 14.5 -182t48.5 -126.5t78.5 -73.5t103.5 -24q36 0 69.5 6.5t63 16t54 20.5t44.5 21l19 -92q-48 -35 -118 -58.5t-161 -23.5q-81 0 -145.5 36t-109 103t-67.5 162.5t-21 214.5h-163z" />
<glyph unicode="&#x2122;" horiz-adv-x="1207" d="M181 1284l11 76h431l-11 -76h-172l-61 -418h-86l60 418h-172zM656 866l71 494h113l95 -264l173 264h111l-72 -494h-91l53 368l-146 -220l3 -6h-87l3 5l-83 225l-54 -372h-89z" />
<glyph unicode="&#xe000;" horiz-adv-x="1000" d="M0 1000h1000v-1000h-1000v1000z" />
<glyph unicode="&#xfb01;" horiz-adv-x="1025" d="M99 890l37 110h128l7 43q15 107 51.5 181t91 119.5t126.5 65.5t159 20q30 0 63 -2.5t65.5 -6.5t61.5 -9.5t51 -11.5l-15 -106q-20 4 -47.5 8.5t-59 8.5t-64 6.5t-62.5 2.5q-64 0 -113.5 -14.5t-86 -47t-60 -85.5t-34.5 -129l-6 -43h236l-16 -110h-236l-129 -890h-128 l129 890h-149zM643 0l145 1000h128l-145 -1000h-128z" />
<glyph unicode="&#xfb02;" horiz-adv-x="1112" d="M99 890l37 110h128l7 43q15 107 51.5 181t91 119.5t126.5 65.5t159 20q29 0 61.5 -2.5t64 -6.5t60.5 -9t52 -11h116l-203 -1400h-129l188 1296q-21 4 -47.5 8t-55 7.5t-58 5.5t-56.5 2q-64 0 -113.5 -14.5t-86 -47t-60 -85.5t-34.5 -129l-6 -43h236l-16 -110h-236 l-129 -890h-128l129 890h-149z" />
<glyph unicode="&#xfb03;" horiz-adv-x="1776" d="M1378 0l145 1000h129l-145 -1000h-129zM1543 1244l23 158h155l-23 -158h-155zM740 890l38 110h125l11 74q14 95 42 161t69 107t94 59.5t116 18.5q42 0 85.5 -9t72.5 -21l-19 -102q-12 4 -28.5 8t-35 7t-39 5t-39.5 2q-41 0 -72 -12.5t-54 -40.5t-39 -73t-25 -110l-11 -74 h236l-16 -110h-236l-129 -890h-128l129 890h-147zM100 890l38 110h125l11 74q14 95 42 161t69 107t94 59.5t116 18.5q42 0 85.5 -9t72.5 -21l-19 -102q-12 4 -28.5 8t-35 7t-39 5t-39.5 2q-41 0 -72 -12.5t-54 -40.5t-39 -73t-25 -110l-11 -74h236l-16 -110h-236l-129 -890 h-128l129 890h-147z" />
<glyph unicode="&#xfb04;" horiz-adv-x="1777" d="M1380 0l203 1400h129l-203 -1400h-129zM740 890l38 110h125l11 74q14 95 42 161t69 107t94 59.5t116 18.5q42 0 85.5 -9t72.5 -21l-19 -102q-12 4 -28.5 8t-35 7t-39 5t-39.5 2q-41 0 -72 -12.5t-54 -40.5t-39 -73t-25 -110l-11 -74h236l-16 -110h-236l-129 -890h-128 l129 890h-147zM100 890l38 110h125l11 74q14 95 42 161t69 107t94 59.5t116 18.5q42 0 85.5 -9t72.5 -21l-19 -102q-12 4 -28.5 8t-35 7t-39 5t-39.5 2q-41 0 -72 -12.5t-54 -40.5t-39 -73t-25 -110l-11 -74h236l-16 -110h-236l-129 -890h-128l129 890h-147z" />
</font>
</defs>
</svg>
