<?xml version="1.0" standalone="no"?>
<!DOCTYPE svg PUBLIC "-//W3C//DTD SVG 1.1//EN" "http://www.w3.org/Graphics/SVG/1.1/DTD/svg11.dtd" >
<svg xmlns="http://www.w3.org/2000/svg">
<metadata>
This is a custom SVG webfont generated by Font Squirrel.
Copyright   : Font data copyright Punchcut 2009
Designer    : Punchcut
Foundry URL : Punchcutcom
</metadata>
<defs>
<font id="AmbleItalic" horiz-adv-x="1137" >
<font-face units-per-em="2048" ascent="1548" descent="-500" />
<missing-glyph horiz-adv-x="478" />
<glyph unicode=" "  horiz-adv-x="478" />
<glyph unicode="&#x09;" horiz-adv-x="478" />
<glyph unicode="&#xa0;" horiz-adv-x="478" />
<glyph unicode="!" horiz-adv-x="561" d="M98 0l23 156h190l-23 -156h-190zM156 402l145 998h190l-144 -998h-191z" />
<glyph unicode="&#x22;" horiz-adv-x="632" d="M127 932l47 428h196l-120 -438zM399 932l47 428h195l-119 -438z" />
<glyph unicode="#" horiz-adv-x="1343" d="M64 344l21 150h241l95 354h-233l22 150h251l97 362h187l-97 -362h205l97 362h190l-97 -362h224l-22 -150h-242l-95 -354h237l-22 -150h-255l-92 -344h-189l92 344h-206l-91 -344h-188l92 344h-222zM513 494h206l94 354h-205z" />
<glyph unicode="$" d="M107 58l63 144q39 -15 78.5 -29t82 -24.5t89.5 -16.5t102 -6q58 0 106.5 15.5t85.5 45t59.5 71t28.5 94.5q6 50 -11 88.5t-53 68.5t-89 54t-119 45q-69 22 -129 55t-103.5 77t-68.5 99t-25 122q0 10 0.5 19.5t1.5 19.5q9 77 39.5 140.5t80 111t115.5 78t146 42.5l25 224 h188l-24 -221q90 -10 161.5 -32.5t113.5 -42.5l-58 -150q-38 15 -72.5 30t-72 27t-80 19.5t-95.5 7.5q-61 0 -110 -16.5t-84 -46.5t-56.5 -71t-26.5 -90q-10 -85 47.5 -145.5t194.5 -106.5q88 -30 154.5 -65.5t111.5 -79t67.5 -95.5t22.5 -116q0 -22 -3 -44 q-8 -75 -37.5 -137t-77 -108.5t-111.5 -78t-142 -44.5l-27 -250h-188l26 242q-48 3 -95 9.5t-89.5 16t-79 22.5t-63.5 28z" />
<glyph unicode="%" horiz-adv-x="1627" d="M194 1024q0 13 1 25.5t3 26.5q10 73 42.5 130t80 95.5t107 58.5t124.5 20q58 0 108 -17t86.5 -50t57.5 -80t21 -107q0 -12 -1 -24.5t-3 -25.5q-11 -74 -43.5 -131t-80 -95.5t-107.5 -58t-126 -19.5q-57 0 -106.5 17t-86 49t-57 79t-20.5 107zM199 0l1079 1360h150 l-1076 -1360h-153zM362 1039q0 -63 33.5 -97t87.5 -34q31 0 59.5 11.5t51 33.5t38 53t21.5 70q3 19 3 36q0 63 -33.5 96.5t-90.5 33.5q-30 0 -57.5 -11.5t-50 -32.5t-38 -52t-21.5 -70q-3 -20 -3 -37zM826 239q0 12 1 24.5t3 26.5q11 73 43 130t79.5 95.5t106.5 58.5t124 20 q58 0 108.5 -17t87 -50t57.5 -80t21 -107q0 -12 -1 -24.5t-3 -25.5q-11 -74 -43 -131t-80 -95.5t-108 -58t-127 -19.5q-57 0 -106 17t-85.5 49t-57 79.5t-20.5 107.5zM994 252q0 -63 32.5 -96.5t87.5 -33.5q32 0 60 11.5t50.5 33.5t38 53t21.5 70q3 19 3 36q0 63 -33 96.5 t-91 33.5q-30 0 -58 -11.5t-50 -32.5t-37 -52t-21 -70q-3 -20 -3 -38z" />
<glyph unicode="&#x26;" horiz-adv-x="1225" d="M61 293q0 22 3 45q7 69 34 124.5t70.5 104t102 93t128.5 91.5l-54 73q-47 60 -65.5 111.5t-18.5 102.5q0 9 0.5 18.5t1.5 19.5q7 69 40 124.5t84.5 94.5t119 60t144.5 21q64 0 119 -17t95 -49t62.5 -78t22.5 -104q0 -8 -0.5 -16.5t-1.5 -17.5q-6 -52 -29 -94t-59 -80 t-82.5 -74t-100.5 -76l-48 -35l267 -358q37 46 73.5 96.5t73.5 104.5l105 -100q-36 -60 -76.5 -115.5t-85.5 -105.5l146 -195l-145 -96l-128 170q-91 -72 -194.5 -114t-210.5 -42q-89 0 -161.5 21.5t-124 62t-79.5 98.5t-28 131zM249 332q-5 -48 9 -85.5t43.5 -63 t73.5 -38.5t98 -13q89 0 162 31.5t139 86.5l-289 385q-47 -34 -87.5 -67t-72 -69.5t-51.5 -77t-25 -89.5zM448 1078q-6 -54 12 -99t40 -73l45 -59l52 35q38 26 67 48t49.5 45.5t33 51.5t16.5 67q3 31 -5.5 56t-27 43t-44.5 27.5t-57 9.5q-27 0 -57 -9.5t-56.5 -28.5 t-45 -47.5t-22.5 -66.5z" />
<glyph unicode="'" horiz-adv-x="358" d="M106 952l45 408h196l-115 -418z" />
<glyph unicode="(" horiz-adv-x="661" d="M97 411q0 37 1.5 74t6.5 75q16 146 58 283.5t102 260.5t135 227t158 183l115 -60q-59 -66 -119.5 -154t-113 -199t-92 -246t-57.5 -295q-5 -51 -8 -97.5t-3 -91.5q0 -118 16.5 -217.5t43 -182.5t60 -151t68.5 -122l-126 -60q-54 80 -99 168.5t-77.5 185.5t-50.5 201.5 t-18 217.5z" />
<glyph unicode=")" horiz-adv-x="661" d="M1 -302q57 66 117 153.5t112.5 198.5t92.5 246t58 296q5 51 8 97.5t3 91.5q0 118 -16.5 217.5t-43 182.5t-60 151t-68.5 122l126 60q118 -158 182 -347t64 -410q0 -81 -9 -165q-16 -146 -57.5 -283.5t-101.5 -260.5t-135 -227t-158 -183z" />
<glyph unicode="*" horiz-adv-x="887" d="M142 1034l92 154l227 -141l19 313h160l-72 -307l266 150l51 -150l-292 -117l173 -225l-142 -102l-127 261l-201 -274l-117 100l231 234z" />
<glyph unicode="+" horiz-adv-x="1023" d="M99 586l21 146h332l46 316h154l-45 -316h331l-21 -146h-332l-46 -318h-154l46 318h-332z" />
<glyph unicode="," horiz-adv-x="498" d="M-10 -272l134 448h216l-217 -468z" />
<glyph unicode="-" horiz-adv-x="748" d="M102 606l24 166h543l-24 -166h-543z" />
<glyph unicode="." horiz-adv-x="505" d="M55 0l28 196h217l-28 -196h-217z" />
<glyph unicode="/" horiz-adv-x="829" d="M-69 -140l759 1500h188l-759 -1500h-188z" />
<glyph unicode="0" d="M99 473q0 92 15 199q24 166 72.5 297.5t120 222.5t164.5 139.5t206 48.5q94 0 166 -35.5t121 -102t74 -162t25 -214.5q0 -91 -15 -194q-24 -167 -73.5 -296t-122 -217t-168 -133.5t-210.5 -45.5q-92 0 -162 33t-117 96.5t-71.5 155t-24.5 208.5zM285 463 q0 -165 52.5 -251t158.5 -86q66 0 124.5 37.5t105.5 108t81.5 171.5t52.5 229q8 57 12 107.5t4 96.5q0 173 -55.5 265.5t-164.5 92.5q-65 0 -121.5 -39.5t-102 -112.5t-78.5 -177t-52 -233q-8 -58 -12.5 -110t-4.5 -99z" />
<glyph unicode="1" d="M145 0l21 146h301l151 1044l-323 -80l20 138l388 112h128l-176 -1214h294l-21 -146h-783z" />
<glyph unicode="2" d="M62 0l9 66q19 130 58.5 224t103.5 167.5t154 133t209 121.5q65 34 112.5 68.5t80 71.5t51 76t24.5 82q3 18 3 35q0 43 -16 78t-45.5 59.5t-71.5 38t-94 13.5q-51 0 -99.5 -10t-94 -26.5t-89.5 -37t-86 -42.5l-36 126q34 22 82.5 46t106 44t121.5 33t130 13 q86 0 156 -21.5t120 -62t77.5 -98.5t27.5 -131q0 -14 -1 -29t-3 -30q-12 -81 -47.5 -143t-88 -111.5t-118.5 -90t-138 -79.5q-75 -42 -139 -84.5t-114.5 -93.5t-85 -114t-50.5 -146h678l-21 -146h-866z" />
<glyph unicode="3" d="M37 74l76 122q62 -30 132.5 -50t165.5 -20q71 0 135 15t113.5 45.5t82 76t41.5 107.5q3 24 3 45q0 55 -21 94.5t-59 64.5t-90.5 36.5t-115.5 11.5h-174l21 146h175q56 0 108 14t94 43t70 73.5t37 105.5q3 22 3 43q0 51 -20 87t-55.5 58t-84.5 32t-106 10q-85 0 -155 -20 t-138 -50l-46 118q34 22 79.5 40t96.5 31t104.5 20t102.5 7q93 0 167.5 -22t126.5 -63.5t80 -100.5t28 -132q0 -14 -1 -28.5t-3 -29.5q-17 -112 -84 -189.5t-178 -117.5q106 -35 161.5 -107t55.5 -172q0 -13 -1 -25.5t-3 -26.5q-13 -89 -57.5 -160.5t-116 -121.5t-167.5 -77 t-211 -27q-51 0 -104.5 6.5t-103 18.5t-92.5 29.5t-72 39.5z" />
<glyph unicode="4" d="M14 292l16 110l744 958h227l-134 -922h188l-21 -146h-188l-42 -292h-188l42 292h-644zM238 438h441l102 703z" />
<glyph unicode="5" d="M62 62l63 134q56 -32 127.5 -51t175.5 -19q81 0 146.5 17.5t113.5 54t78.5 93t42.5 135.5q2 14 3 26t1 24q0 58 -20.5 100.5t-56.5 70t-85 40.5t-106 13q-64 0 -129 -10.5t-114 -33.5l-146 40l193 664h707l-21 -146h-561l-123 -400q54 14 121.5 23t148.5 9q90 0 161 -23 t120 -67t75 -107.5t26 -143.5q0 -37 -6 -79q-15 -100 -60 -182t-117.5 -140.5t-170 -91t-216.5 -32.5q-56 0 -110.5 6.5t-103.5 17.5t-89 26t-68 32z" />
<glyph unicode="6" d="M106 470q0 41 3 83.5t10 88.5q25 172 83 309t143 232t195 146t239 51q52 0 94 -4.5t75.5 -12.5t60.5 -19t50 -24l-57 -130q-46 21 -99.5 32.5t-119.5 11.5q-81 0 -154 -30.5t-133.5 -94.5t-106 -163.5t-71.5 -236.5q78 77 175.5 116t205.5 39q84 0 146 -24t103.5 -68 t62 -107.5t20.5 -141.5q0 -23 -1.5 -48t-5.5 -51q-13 -88 -54.5 -168.5t-108 -141.5t-156 -97.5t-197.5 -36.5q-99 0 -174 34t-126 97.5t-76.5 154t-25.5 204.5zM293 457q0 -171 65 -251t190 -80q59 0 108.5 24t86 64.5t60 92t31.5 107.5q6 45 6 84q0 49 -10.5 89.5 t-33 69.5t-58 45t-86.5 16q-44 0 -89.5 -7t-90.5 -23.5t-89 -45.5t-84 -72q-6 -62 -6 -113z" />
<glyph unicode="7" d="M191 1214l21 146h925l-17 -120l-699 -1240h-196l689 1214h-723z" />
<glyph unicode="8" d="M55 310q0 15 1.5 31t3.5 33q17 116 93.5 198.5t197.5 125.5q-78 35 -120.5 97.5t-42.5 150.5q0 13 1 26.5t3 27.5q13 92 54 163t104 119t146 73t180 25q87 0 158.5 -21.5t123 -62.5t80 -100.5t28.5 -134.5q0 -15 -1.5 -30t-3.5 -31q-16 -112 -83 -186.5t-171 -115.5 q99 -38 153.5 -109.5t54.5 -167.5q0 -23 -3 -47q-14 -98 -60 -171.5t-116.5 -123t-162.5 -74.5t-200 -25q-94 0 -171 21.5t-132 63.5t-85 103.5t-30 141.5zM245 329q0 -51 18 -89t51 -63.5t78.5 -38t101.5 -12.5q61 0 117 16t100 47.5t73.5 78t38.5 106.5q3 19 3 38 q0 49 -19 88.5t-53.5 67.5t-82 43t-105.5 15q-60 0 -114 -18.5t-96.5 -52t-71 -80t-36.5 -101.5q-3 -24 -3 -45zM377 956q0 -46 15 -81t43 -59t66.5 -36t85.5 -12q52 0 100 15.5t86.5 45t65 72.5t34.5 99q3 21 3 41q0 48 -16.5 84t-46 60t-70.5 36.5t-89 12.5 q-51 0 -97 -15.5t-82.5 -45.5t-61.5 -73.5t-33 -99.5q-3 -23 -3 -44z" />
<glyph unicode="9" d="M122 40l53 136q49 -24 108.5 -37t131.5 -13q71 0 136.5 30t119.5 93t95 160.5t64 232.5q-75 -69 -166.5 -103.5t-187.5 -34.5q-79 0 -141 26t-105 72.5t-66 111.5t-23 142q0 37 6 78q13 89 54.5 169.5t108 142t156 98t198.5 36.5q187 0 283 -115t96 -354q0 -103 -18 -229 q-24 -163 -78 -293t-132.5 -221t-179 -139.5t-217.5 -48.5q-56 0 -100 4.5t-79 12.5t-63.5 19t-53.5 24zM329 854q0 -46 10.5 -83.5t33.5 -64.5t59.5 -41.5t89.5 -14.5q39 0 81 6.5t84 23t83.5 45t79.5 72.5q6 67 6 123q0 94 -16.5 154.5t-47.5 96t-75.5 49.5t-99.5 14 q-58 0 -106 -24.5t-84.5 -66.5t-59.5 -96.5t-32 -114.5q-6 -41 -6 -78z" />
<glyph unicode=":" horiz-adv-x="604" d="M181 694l28 196h217l-28 -196h-217zM81 2l28 196h217l-28 -196h-217z" />
<glyph unicode=";" horiz-adv-x="551" d="M-10 -272l134 448h216l-217 -468zM182 702l28 196h217l-28 -196h-217z" />
<glyph unicode="&#x3c;" horiz-adv-x="1023" d="M75 422l23 160l868 348l-26 -184l-648 -244l577 -244l-27 -184z" />
<glyph unicode="=" horiz-adv-x="1148" d="M84 326l21 146h899l-21 -146h-899zM136 686l21 146h899l-21 -146h-899z" />
<glyph unicode="&#x3e;" horiz-adv-x="1023" d="M24 74l27 184l647 244l-576 244l27 184l767 -348l-23 -160z" />
<glyph unicode="?" horiz-adv-x="980" d="M179 1251q33 22 76.5 44.5t95 41.5t111.5 31t126 12q82 0 147 -20t110.5 -58t69.5 -92t24 -123q0 -14 -1 -28.5t-3 -30.5q-11 -74 -46.5 -130t-83.5 -101t-103 -83.5t-104 -75.5q-27 -22 -46.5 -47t-33 -57.5t-22.5 -74.5t-17 -97h-174q12 79 29.5 138t43.5 105t63 83 t87 74q49 35 87 66.5t65.5 63t44 65t22.5 73.5q2 8 2 16v16q0 78 -55 124.5t-151 46.5q-47 0 -90.5 -9t-84.5 -24t-80.5 -34.5t-78.5 -41.5zM244 0l26 176h187l-26 -176h-187z" />
<glyph unicode="@" horiz-adv-x="1761" d="M65 226q0 112 22 234q39 210 124 379.5t207 289.5t277.5 184.5t335.5 64.5q147 0 262 -45t194 -129t120.5 -204.5t41.5 -272.5q0 -115 -24 -245q-11 -59 -31 -119t-50 -116t-70.5 -104.5t-91.5 -84.5t-114.5 -57t-138.5 -21q-66 0 -109.5 43t-53.5 121 q-124 -160 -323 -160q-97 0 -151 69.5t-54 192.5q0 35 4.5 73.5t14.5 80.5q28 121 77.5 219.5t113 168t138 107t153.5 37.5q63 0 110 -8t84.5 -22t68.5 -32.5t61 -39.5l-4 -4h4l-128 -544q-6 -28 -8.5 -50t-2.5 -40q0 -28 6 -46t15.5 -28t21.5 -14t25 -4q54 0 102 30 t87 81.5t66.5 121t41.5 149.5q13 68 19 130t6 120q0 124 -30 223t-92 168t-157 106t-224 37q-143 0 -268 -57t-224.5 -162t-170.5 -254t-105 -333q-24 -128 -24 -237q0 -128 32 -229.5t95 -172.5t155 -109t212 -38q46 0 96.5 6.5t99.5 17.5t94.5 26t81.5 32l3 -106 q-39 -22 -87.5 -38t-101 -26.5t-106 -16t-101.5 -5.5q-147 0 -263.5 45t-197.5 130.5t-123.5 208.5t-42.5 278zM624 269q0 -139 106 -139q29 0 60 6t62 23t61 47t59 77l120 491q-26 12 -59 20t-74 8q-117 0 -193.5 -102t-124.5 -300q-8 -38 -12.5 -70.5t-4.5 -60.5z" />
<glyph unicode="A" horiz-adv-x="1281" d="M-21 0l673 1360h192l282 -1360h-188l-66 346h-539l-166 -346h-188zM403 492h441l-125 658z" />
<glyph unicode="B" horiz-adv-x="1229" d="M86 0l197 1360h382q97 0 173 -22t128.5 -62t80 -97t27.5 -127q0 -14 -1 -28t-3 -28q-8 -58 -31.5 -103.5t-54 -80t-64 -60t-63.5 -43.5q112 -26 172 -95t60 -174q0 -14 -1 -28t-3 -28q-13 -89 -57.5 -160t-116 -121t-168 -76.5t-213.5 -26.5h-444zM295 146h234 q72 0 135 14.5t112 44t80.5 74t40.5 105.5q2 14 3 26t1 24q0 100 -62.5 149t-173.5 49h-300zM387 778h377q15 16 32.5 34t34 43t30.5 59t21 82q3 21 3 40q0 93 -69 135.5t-194 42.5h-172z" />
<glyph unicode="C" horiz-adv-x="1077" d="M114 537q0 35 3 71t8 74q24 163 84.5 292.5t151 219.5t208.5 138t257 48q48 0 86.5 -5.5t71 -14.5t59 -21t49.5 -25l-71 -130q-44 23 -96.5 36.5t-119.5 13.5q-89 0 -169.5 -32t-145 -99.5t-110.5 -171.5t-67 -249q-12 -86 -12 -158q0 -106 25.5 -181.5t73 -123.5 t115 -70.5t151.5 -22.5q40 0 75.5 5.5t67 14.5t58.5 19.5t49 20.5l22 -128q-56 -33 -131.5 -55.5t-183.5 -22.5q-119 0 -213 39t-160 112t-101 175.5t-35 230.5z" />
<glyph unicode="D" horiz-adv-x="1332" d="M86 0l197 1360h403q123 0 222.5 -38.5t169.5 -109.5t107.5 -172.5t37.5 -227.5q0 -31 -2.5 -63.5t-7.5 -66.5q-23 -158 -85.5 -284.5t-156.5 -215t-216.5 -135.5t-265.5 -47h-403zM295 146h194q99 0 187.5 31.5t159 97t120 166.5t69.5 241q5 38 8 71.5t3 65.5 q0 106 -28 181t-79.5 122.5t-124 69.5t-160.5 22h-194z" />
<glyph unicode="E" horiz-adv-x="1031" d="M86 0l197 1360h769l-21 -146h-581l-65 -444h519l-21 -146h-519l-69 -478h581l-21 -146h-769z" />
<glyph unicode="F" horiz-adv-x="960" d="M86 0l197 1360h728l-22 -146h-539l-65 -444h476l-21 -146h-476l-90 -624h-188z" />
<glyph unicode="G" horiz-adv-x="1314" d="M124 560q0 58 9 120q24 166 89.5 296t166 220t232 137t289.5 47q97 0 164.5 -18t109.5 -38l-59 -138q-42 17 -100 32.5t-136 15.5q-112 0 -207 -35.5t-168.5 -105t-123 -173.5t-68.5 -240q-5 -29 -6.5 -57t-1.5 -56q0 -92 23 -172.5t69.5 -140t115.5 -94t161 -34.5 q60 0 117 7t111 27l56 384h-284l21 146h472l-90 -622q-100 -41 -203 -64.5t-221 -23.5q-128 0 -228 45t-169 123.5t-105 184.5t-36 227z" />
<glyph unicode="H" horiz-adv-x="1353" d="M85 0l197 1360h188l-88 -608h633l88 608h188l-197 -1360h-188l87 606h-632l-88 -606h-188z" />
<glyph unicode="I" horiz-adv-x="806" d="M42 0l21 146h177l155 1068h-177l21 146h545l-21 -146h-180l-155 -1068h180l-21 -146h-545z" />
<glyph unicode="J" horiz-adv-x="915" d="M-2 42l63 136q18 -10 44.5 -19t56 -16.5t58.5 -12t52 -4.5q55 0 97.5 14t73 45.5t50.5 80.5t31 120l141 974h188l-141 -974q-18 -121 -56.5 -199.5t-95 -124.5t-129.5 -64t-158 -18q-91 0 -161 18.5t-114 43.5z" />
<glyph unicode="K" horiz-adv-x="1223" d="M81 0l197 1360h188l-89 -612h193l448 612h207l-499 -674h-2l373 -686h-216l-326 602h-199l-87 -602h-188z" />
<glyph unicode="L" horiz-adv-x="994" d="M85 0l197 1360h188l-176 -1214h589l-21 -146h-777z" />
<glyph unicode="M" horiz-adv-x="1625" d="M85 0l197 1360h245l298 -691l497 691h242l-197 -1360h-188l100 688l80 462l-488 -688h-155l-292 696l-50 -458l-101 -700h-188z" />
<glyph unicode="N" horiz-adv-x="1396" d="M85 0l197 1360h188v-1l1 1l520 -1056l153 1056h188l-197 -1360h-188l-521 1058l-153 -1058h-188z" />
<glyph unicode="O" horiz-adv-x="1351" d="M104 531q0 35 3 72.5t8 76.5q24 166 84.5 296t149 220t199.5 137t237 47q107 0 195.5 -38t151.5 -109.5t98 -174t35 -231.5q0 -35 -3 -72t-8 -75q-24 -167 -85.5 -297t-150 -219.5t-200 -136.5t-236.5 -47q-107 0 -195 37.5t-151 109t-97.5 173.5t-34.5 231zM290 519 q0 -101 22 -175t63 -122.5t99 -72t129 -23.5q82 0 157.5 34.5t136.5 103.5t105 173t64 243q6 45 9.5 84.5t3.5 76.5q0 101 -22.5 175t-63.5 122.5t-99 72t-130 23.5q-81 0 -156 -34.5t-136 -103.5t-105 -173t-64 -243q-6 -45 -9.5 -84.5t-3.5 -76.5z" />
<glyph unicode="P" horiz-adv-x="1160" d="M85 0l197 1360h423q100 0 179.5 -24.5t134.5 -70t84 -110t29 -145.5q0 -17 -1.5 -34t-3.5 -34q-14 -98 -58 -176.5t-114 -133t-164 -83.5t-208 -29h-235l-75 -520h-188zM369 666h215q72 0 132.5 16.5t106 50.5t75.5 86t40 123q2 16 3.5 31t1.5 29q0 57 -19 97t-55 65.5 t-88 37.5t-118 12h-214z" />
<glyph unicode="Q" horiz-adv-x="1301" d="M82 529q0 36 2.5 73.5t8.5 77.5q24 166 84.5 296t149 220t199.5 137t237 47q107 0 195.5 -38t151.5 -109.5t98 -174t35 -231.5q0 -35 -3 -72t-8 -75q-27 -188 -99.5 -324.5t-178.5 -227.5l223 -314h-205l-160 221q-119 -55 -252 -55q-107 0 -195 37.5t-151 108.5 t-97.5 172.5t-34.5 230.5zM268 519q0 -101 22 -175t63 -122.5t99 -72t129 -23.5q82 0 157.5 34.5t136.5 103.5t104.5 173t63.5 243q7 45 10 85.5t3 77.5q0 100 -22 174t-63 122t-99 71.5t-130 23.5q-81 0 -156 -34.5t-136 -103.5t-105 -173t-64 -243q-6 -45 -9.5 -84.5 t-3.5 -76.5z" />
<glyph unicode="R" horiz-adv-x="1207" d="M86 0l197 1360h422q97 0 173 -22t128.5 -63t80.5 -100.5t28 -135.5q0 -16 -1.5 -32t-3.5 -33q-8 -57 -33 -108.5t-60.5 -96t-79 -81.5t-89.5 -64l186 -624h-197l-170 584h-308l-85 -584h-188zM380 730h390q24 18 47.5 39t44.5 49.5t36.5 66.5t23.5 89q2 14 3 27.5t1 25.5 q0 52 -17.5 88t-51 58t-82 31.5t-110.5 9.5h-215z" />
<glyph unicode="S" horiz-adv-x="1060" d="M57 58l63 144q39 -15 78.5 -29t82 -24.5t89.5 -16.5t102 -6q58 0 106.5 15.5t85.5 45t59.5 71t28.5 94.5q2 13 2 25q0 35 -13 63q-17 38 -53 68.5t-89 54.5t-119 45q-69 22 -128.5 55t-103 77t-68.5 99t-25 122q0 10 0.5 19.5t1.5 19.5q10 89 48.5 159.5t101 119.5 t146 75t182.5 26q58 0 113 -8t102.5 -20t86 -26t64.5 -26l-58 -150q-38 15 -72.5 30t-72 27t-80 19.5t-95.5 7.5q-61 0 -110 -16.5t-84 -46.5t-56.5 -71t-26.5 -90q-1 -13 -1 -25q1 -69 49 -121q58 -60 194 -106q88 -30 154.5 -65.5t111.5 -79t67.5 -95.5t22.5 -116 q0 -22 -3 -44q-10 -88 -48.5 -158t-101.5 -119t-147.5 -75t-185.5 -26q-54 0 -111.5 5.5t-111.5 15.5t-100 24.5t-78 32.5z" />
<glyph unicode="T" horiz-adv-x="1140" d="M155 1214l21 146h1006l-21 -146h-410l-176 -1214h-188l176 1214h-408z" />
<glyph unicode="U" horiz-adv-x="1364" d="M140 342q0 17 1 34.5t4 35.5l138 948h188l-137 -948q-2 -14 -3 -27t-1 -26q0 -58 20 -101.5t57 -73t89 -44t115 -14.5q70 0 131.5 19t110 55t80.5 89.5t42 122.5l137 948h188l-137 -948q-15 -107 -64 -187.5t-124 -135t-173 -82t-212 -27.5q-100 0 -183 24t-142 70 t-92 113.5t-33 154.5z" />
<glyph unicode="V" horiz-adv-x="1261" d="M176 1360h193l145 -750l59 -398l176 394l361 754h193l-667 -1360h-188z" />
<glyph unicode="W" horiz-adv-x="1768" d="M197 1360h194l48 -1115l468 1115h175l142 -1119l376 1119h189l-490 -1360h-201l-147 1046l-458 -1046h-198z" />
<glyph unicode="X" d="M-29 0l491 689l-293 671h211l219 -536l376 536h209l-490 -671l293 -689h-211l-217 548l-373 -548h-215z" />
<glyph unicode="Y" d="M176 1360h193l208 -686l409 686h193l-537 -875l-71 -485h-188l71 491z" />
<glyph unicode="Z" horiz-adv-x="1193" d="M42 0l18 126l832 1088h-669l21 146h906l-16 -110l-857 -1104h762l-62 -146h-935z" />
<glyph unicode="[" horiz-adv-x="740" d="M157 -300l200 1824h347l-16 -146h-159l-168 -1532h158l-16 -146h-346z" />
<glyph unicode="\" horiz-adv-x="829" d="M148 1360h189l324 -1500h-189z" />
<glyph unicode="]" horiz-adv-x="740" d="M52 -300l16 146h157l169 1532h-157l16 146h345l-200 -1824h-346z" />
<glyph unicode="^" horiz-adv-x="894" d="M90 708l379 652h176l191 -652h-188l-122 449l-251 -449h-185z" />
<glyph unicode="_" horiz-adv-x="871" d="M-125 -234l21 146h873l-21 -146h-873z" />
<glyph unicode="`" horiz-adv-x="595" d="M174 1360l211 60l177 -268l-141 -40z" />
<glyph unicode="a" horiz-adv-x="1100" d="M83 297q0 53 9 113q20 136 70 248.5t120.5 192.5t157.5 124.5t181 44.5q71 0 123 -24t86 -54l32 58h140l-145 -1000h-165l-1 133q-65 -73 -140 -113t-178 -40q-143 0 -216.5 81t-73.5 236zM275 341q0 -55 14 -95.5t37.5 -67t55 -39.5t66.5 -13q33 0 67 9.5t66.5 26 t63.5 38.5t59 47l86 592q-32 13 -72 24t-83 11q-60 0 -117.5 -33t-105 -93.5t-82.5 -146t-50 -191.5q-3 -19 -4 -36t-1 -33z" />
<glyph unicode="b" horiz-adv-x="1162" d="M78 0l203 1402h188l-71 -493q30 26 60.5 46.5t65.5 35t76.5 22t94.5 7.5q77 0 139.5 -28t106.5 -80.5t67.5 -126.5t23.5 -167q0 -55 -9 -116q-17 -121 -59.5 -218t-105 -164.5t-142.5 -103.5t-171 -36q-54 0 -95 9t-73.5 26.5t-59.5 42t-52 54.5l-42 -112h-145zM296 207 q42 -34 93 -57.5t116 -23.5q140 0 222 96.5t108 279.5q9 64 9 119q0 128 -55 190.5t-175 62.5q-63 0 -122 -22t-110 -56z" />
<glyph unicode="c" horiz-adv-x="923" d="M86 404q0 23 1.5 47.5t5.5 50.5q18 121 64.5 217t118 163t164.5 102.5t203 35.5q88 0 154 -14t107 -40l-72 -136q-16 8 -33.5 16t-40 14t-51 10t-65.5 4q-67 0 -126.5 -21.5t-106.5 -67t-80.5 -116t-47.5 -167.5q-4 -28 -6 -53t-2 -48q0 -73 18.5 -125t52.5 -85.5t82 -49 t107 -15.5q79 0 136.5 14t102.5 34l29 -128q-50 -30 -122.5 -48t-166.5 -18q-99 0 -178 30t-134 85.5t-84.5 133.5t-29.5 175z" />
<glyph unicode="d" horiz-adv-x="1139" d="M93 382q0 57 9 120q18 121 59.5 217t103 163t139.5 102.5t169 35.5q93 0 152.5 -26.5t103.5 -74.5l70 481h188l-203 -1400h-166l-1 87q-30 -26 -60.5 -45.5t-65 -33.5t-75.5 -21t-93 -7q-77 0 -138 28t-103.5 80.5t-65.5 127t-23 166.5zM280 376q0 -125 53 -187.5 t172 -62.5q60 0 116 20t104 52l88 604q-38 32 -87.5 52t-111.5 20q-141 0 -219.5 -95.5t-104.5 -276.5q-5 -35 -7.5 -66t-2.5 -60z" />
<glyph unicode="e" horiz-adv-x="1066" d="M82 386q0 25 2 51.5t6 54.5q19 129 65 227.5t115 165.5t157.5 101t191.5 34q74 0 138.5 -22.5t112 -65t75 -104t27.5 -139.5q0 -16 -1.5 -33t-3.5 -34l-21 -146h-670q-2 -20 -3.5 -40t-1.5 -38q0 -131 64.5 -201.5t193.5 -70.5q96 0 165.5 19t116.5 37l27 -128 q-65 -35 -150.5 -54.5t-179.5 -19.5q-101 0 -180 27t-133.5 79t-83.5 127.5t-29 172.5zM305 622h474q2 15 3 29t1 28q0 53 -15 90t-40 60.5t-59 34t-71 10.5q-50 0 -94.5 -12t-82 -41.5t-67 -78t-49.5 -120.5z" />
<glyph unicode="f" horiz-adv-x="740" d="M112 854l39 146h119l9 62q16 109 49.5 178.5t83.5 109.5t115 55t143 15q24 0 49.5 -2.5t50.5 -6.5t46.5 -9.5t38.5 -11.5l-26 -136q-14 3 -33 6.5t-40.5 6.5t-44 5t-43.5 2q-44 0 -77.5 -11t-58 -36.5t-40.5 -66t-25 -98.5l-9 -62h283l-21 -146h-283l-124 -854h-188 l124 854h-137z" />
<glyph unicode="g" horiz-adv-x="1148" d="M96 -398l52 136q22 -6 55.5 -13.5t72 -14.5t78.5 -11.5t76 -4.5q59 0 104 12t78 39.5t53.5 71.5t29.5 109l22 154q-28 -23 -57 -41t-62 -30t-73 -18.5t-89 -6.5q-77 0 -139 28t-105.5 80.5t-67 126.5t-23.5 167q0 54 9 116q17 121 59.5 217t105 163t141.5 102.5t170 35.5 q48 0 86 -7t69.5 -20.5t56.5 -33t48 -43.5l25 84h168l-156 -1074q-17 -115 -56 -188.5t-97.5 -115.5t-135 -58t-167.5 -16q-47 0 -95 5t-92.5 13t-81.5 17.5t-62 18.5zM288 382q0 -127 55 -189.5t176 -62.5q58 0 113 19t103 49l88 607q-38 30 -87 49.5t-109 19.5 q-141 0 -222 -95.5t-107 -276.5q-5 -33 -7.5 -63t-2.5 -57z" />
<glyph unicode="h" horiz-adv-x="1156" d="M78 0l203 1400h188l-71 -491q76 53 159 82t176 29q61 0 111 -13t85.5 -44t55 -81.5t19.5 -125.5q0 -23 -1.5 -49t-6.5 -55l-94 -652h-188l94 652q6 43 6 77q0 79 -35.5 112t-110.5 33q-78 0 -151.5 -31t-139.5 -81l-111 -762h-188z" />
<glyph unicode="i" horiz-adv-x="561" d="M98 0l145 1000h188l-145 -1000h-188zM266 1226l26 176h206l-25 -176h-207z" />
<glyph unicode="j" horiz-adv-x="587" d="M-237 -418l39 138q13 -3 31 -6t38 -6t41.5 -4.5t40.5 -1.5q39 0 68.5 11.5t51.5 38t37.5 70t24.5 108.5l155 1070h188l-155 -1070q-17 -115 -50 -188t-81 -114t-109.5 -56.5t-133.5 -15.5q-23 0 -49 1.5t-51 4.5t-47.5 8t-38.5 12zM311 1226l26 176h208l-25 -176h-209z " />
<glyph unicode="k" horiz-adv-x="1031" d="M78 0l203 1400h188l-118 -812h130l329 412h210l-391 -474h-1l278 -526h-217l-226 442h-133l-64 -442h-188z" />
<glyph unicode="l" horiz-adv-x="562" d="M98 0l203 1400h188l-203 -1400h-188z" />
<glyph unicode="m" horiz-adv-x="1762" d="M78 0l145 1000h166l-1 -83q78 49 163 76t182 27q90 0 157.5 -23.5t98.5 -84.5q78 51 163 79.5t185 28.5q61 0 111.5 -12.5t86.5 -42.5t56 -79t20 -122q0 -21 -1.5 -44t-5.5 -48l-98 -672h-188l98 672q2 17 3.5 33t1.5 30q0 76 -36.5 107.5t-112.5 31.5q-70 0 -136 -24.5 t-124 -65.5q0 -29 -6 -62l-104 -722h-188l104 722q3 22 3 42q0 62 -37 86t-116 24q-78 0 -151.5 -31t-139.5 -81l-111 -762h-188z" />
<glyph unicode="n" horiz-adv-x="1156" d="M78 0l145 1000h166l2 -95q78 54 162.5 84.5t179.5 30.5q61 0 111 -12t86 -41.5t56 -78.5t20 -124q0 -23 -2 -48t-6 -54l-96 -662h-188l96 662q6 42 6 73q0 79 -36.5 109t-111.5 30q-78 0 -151.5 -32t-139.5 -80l-111 -762h-188z" />
<glyph unicode="o" horiz-adv-x="1142" d="M83 395q0 25 2 51t6 54q18 124 65.5 221t118 163.5t161.5 101t195 34.5q90 0 163.5 -28.5t126 -82t81.5 -131t29 -175.5q0 -25 -2 -50.5t-6 -52.5q-18 -125 -66 -222t-119.5 -163t-162.5 -100.5t-195 -34.5q-90 0 -163 28t-125 81.5t-80.5 130.5t-28.5 175zM270 390 q0 -71 16.5 -121t46.5 -82t72.5 -46.5t95.5 -14.5q60 0 114.5 21.5t98.5 67t75.5 116.5t45.5 169q5 29 6.5 56t1.5 52q0 71 -16.5 121.5t-47.5 82.5t-74 47t-95 15q-60 0 -114 -21.5t-97.5 -67t-74.5 -116.5t-45 -169q-9 -60 -9 -110z" />
<glyph unicode="p" horiz-adv-x="1146" d="M20 -400l203 1400h166v-98q32 28 63 50t67 37t78.5 23t97.5 8q77 0 139.5 -28t106.5 -80.5t67.5 -126.5t23.5 -167q0 -55 -9 -116q-17 -121 -59.5 -218t-105 -164.5t-142.5 -103.5t-171 -36q-50 0 -89 7.5t-70.5 21.5t-57.5 35t-49 47l-71 -491h-188zM296 203 q42 -33 93 -55t116 -22q140 0 222 96.5t108 279.5q9 64 9 119q0 128 -55 190.5t-175 62.5q-63 0 -122 -22t-110 -56z" />
<glyph unicode="q" horiz-adv-x="1139" d="M93 382q0 57 9 120q18 121 59.5 217t103 163t139.5 102.5t169 35.5q50 0 89.5 -8t71.5 -22.5t58 -36t50 -48.5l41 95h146l-203 -1400h-188l70 480q-29 -24 -58 -42.5t-63 -31t-74 -19.5t-90 -7q-77 0 -138 28t-103.5 80.5t-65.5 127t-23 166.5zM280 376q0 -125 53 -187.5 t172 -62.5q60 0 116 20t104 52l88 604q-38 32 -87.5 52t-111.5 20q-141 0 -219.5 -95.5t-104.5 -276.5q-5 -35 -7.5 -66t-2.5 -60z" />
<glyph unicode="r" horiz-adv-x="731" d="M78 0l145 1000h166l-5 -140q70 88 140.5 124t145.5 36q18 0 40.5 -1t40.5 -3l-42 -170q-24 5 -48.5 6.5t-55.5 1.5q-63 0 -122.5 -40t-113.5 -103l-103 -711h-188z" />
<glyph unicode="s" horiz-adv-x="933" d="M50 58l51 140q37 -15 71 -28t71 -23t78.5 -15.5t92.5 -5.5q95 0 142 37t55 109q3 31 -9.5 55.5t-38.5 44.5t-64.5 36t-86.5 30q-61 17 -112 40.5t-88 56t-58 73.5t-21 92q0 8 0.5 15t1.5 15q7 68 39.5 122t85.5 91.5t124 57t155 19.5q105 0 183 -20t123 -44l-50 -137 q-33 11 -62 21t-60 17.5t-66 12t-80 4.5q-96 0 -146 -35.5t-57 -98.5q-3 -30 4 -54t27.5 -44t55.5 -36.5t88 -31.5q77 -21 134 -47t94.5 -58t56 -71t18.5 -88q0 -8 -0.5 -16t-1.5 -16q-8 -68 -40 -123t-84.5 -94t-122.5 -60t-153 -21q-51 0 -101.5 5.5t-96 15.5t-84.5 24.5 t-68 32.5z" />
<glyph unicode="t" horiz-adv-x="780" d="M89 854l44 146h137l38 260l191 20l-41 -280h283l-21 -146h-283l-77 -534q-3 -19 -4 -35.5t-1 -30.5q0 -65 28 -90.5t88 -25.5q22 0 47 2t49 5t45.5 6.5t36.5 6.5l-14 -136q-19 -6 -43.5 -11.5t-51.5 -9.5t-55 -6.5t-54 -2.5q-60 0 -109.5 10.5t-84.5 36.5t-54 71.5 t-19 115.5q0 21 1.5 44.5t5.5 49.5l78 534h-160z" />
<glyph unicode="u" horiz-adv-x="1156" d="M123 255q0 27 2.5 57.5t7.5 65.5l90 622h188l-90 -622q-4 -29 -6 -53t-2 -45q0 -87 35.5 -120.5t107.5 -33.5q79 0 153 31.5t139 81.5l111 761h188l-145 -1000h-166l2 127q-79 -69 -164.5 -108t-179.5 -39q-60 0 -110 13t-86 44.5t-55.5 84.5t-19.5 133z" />
<glyph unicode="v" horiz-adv-x="976" d="M96 1000h194l99 -554l37 -264l118 266l257 552h191l-507 -1000h-169z" />
<glyph unicode="w" horiz-adv-x="1462" d="M120 1000h183l47 -776l376 776h127l148 -771l272 771h183l-407 -1000h-155l-146 721l-357 -721h-152z" />
<glyph unicode="x" horiz-adv-x="1019" d="M-14 0l414 507l-264 493h203l175 -360l280 360h200l-406 -492l272 -508h-207l-179 368l-284 -368h-204z" />
<glyph unicode="y" horiz-adv-x="1009" d="M-10 -394l38 136q16 0 37 -4t44 -4q31 0 55.5 9t48 32.5t49 64.5t58.5 105l-204 1055h194l130 -799l371 799h194l-523 -1066q-46 -101 -88.5 -167.5t-87 -106.5t-93.5 -56t-107 -16q-32 0 -62 5t-54 13z" />
<glyph unicode="z" horiz-adv-x="994" d="M14 0l19 136l625 718h-512l21 146h751l-17 -120l-649 -734h594l-61 -146h-771z" />
<glyph unicode="{" horiz-adv-x="695" d="M74 530l14 124q38 0 71.5 10t60 36.5t45 72.5t26.5 117l25 220q12 112 38 193.5t70.5 134.5t108.5 78.5t152 25.5l8 -100q-80 0 -125 -81.5t-64 -250.5l-25 -220q-8 -70 -27.5 -121t-49.5 -86t-69.5 -57t-87.5 -34q39 -11 71 -30t54.5 -48t34.5 -69t12 -93q0 -27 -3 -58 l-29 -260q-4 -37 -6 -69t-2 -61q0 -106 29.5 -154t94.5 -48l-30 -100q-146 0 -213.5 79t-67.5 240q0 26 2 54t5 59l29 260q2 18 3 34t1 31q0 52 -11.5 85.5t-32 52.5t-49.5 26t-63 7z" />
<glyph unicode="|" horiz-adv-x="394" d="M-30 -300l265 1824h188l-265 -1824h-188z" />
<glyph unicode="}" horiz-adv-x="695" d="M11 -298q81 0 126 81t64 251l24 220q8 70 28 120.5t50 86t70 57.5t88 34q-40 10 -72 29t-54.5 48t-34.5 69t-12 93q0 27 3 59l28 260q9 76 9 134q0 104 -30 151t-96 47l34 100q145 0 211.5 -79.5t66.5 -241.5q0 -51 -6 -111l-29 -260q-2 -19 -3 -35.5t-1 -31.5 q0 -52 11.5 -85t32.5 -51.5t50 -25.5t64 -7l-13 -124q-39 0 -73.5 -10t-61.5 -36.5t-45.5 -72.5t-26.5 -117l-24 -220q-12 -112 -38.5 -193.5t-71 -134.5t-107.5 -78.5t-149 -25.5z" />
<glyph unicode="~" horiz-adv-x="1351" d="M91 439q25 79 67 133t90.5 87t98.5 47t92 14q51 0 90.5 -9.5t73.5 -26t65 -39.5t64 -51q51 -41 94.5 -67t93.5 -29q23 -2 49.5 5.5t52.5 28.5t51.5 58t47.5 94l140 -77q-26 -79 -68.5 -132.5t-91 -86.5t-98.5 -47.5t-90 -14.5q-51 0 -91.5 9.5t-75 26t-66 39.5t-64.5 51 q-48 42 -92 68.5t-95 29.5q-22 1 -47.5 -7t-52.5 -29t-53.5 -58t-48.5 -94z" />
<glyph unicode="&#xa1;" horiz-adv-x="561" d="M620.006 1000l-22.998 -155.99h-189.989l22.999 155.99h189.988zM562.01 598.024l-144.991 -997.938h-189.988l143.991 997.938h190.988z" />
<glyph unicode="&#xa2;" d="M122 398q0 25 2 51t6 53q16 110 55.5 199t100 154t139.5 105.5t173 53.5l25 172h142l-24 -168q131 -9 200 -52l-73 -136q-16 8 -33.5 16t-39.5 14t-50.5 10t-66.5 4q-67 0 -126 -21.5t-106.5 -67t-80.5 -116t-47 -167.5q-4 -28 -6 -53.5t-2 -48.5q0 -73 18.5 -125t52 -85 t81.5 -48.5t108 -15.5q78 0 135.5 14t103.5 34l28 -128q-45 -27 -106.5 -44t-139.5 -21l-29 -201h-142l30 208q-79 13 -140 48t-103 87.5t-63.5 122t-21.5 152.5z" />
<glyph unicode="&#xa3;" horiz-adv-x="1100" d="M10 0l21 146h6l-4 2q49 0 89 22t70 59.5t49 87t27 105.5l27 184h-195l51 146h165l35 242q16 108 52.5 182t95 119t139 65t183.5 20q30 0 62.5 -2.5t64.5 -6.5t61 -9.5t52 -11.5l-22 -138q-20 4 -47 8t-57 7t-61.5 5t-60.5 2q-63 0 -110 -14t-80.5 -44t-54.5 -78.5 t-31 -117.5l-33 -228h350l-21 -146h-350l-29 -200q-7 -47 -20.5 -85t-33 -69.5t-45 -57t-58.5 -48.5h665l-21 -146h-931z" />
<glyph unicode="&#xa4;" horiz-adv-x="1342" d="M-6 24l180 149q-70 108 -70 258q0 44 6 89q15 103 56 187.5t104 153.5l-133 145l131 108l132 -145q72 44 154 67.5t173 23.5q88 0 165 -23.5t136 -67.5l174 145l104 -108l-177 -147q32 -52 49 -115t17 -134q0 -22 -2 -44.5t-5 -45.5q-15 -105 -57 -191t-107 -155 l137 -150l-132 -106l-137 149q-70 -42 -151 -64.5t-171 -22.5q-87 0 -162.5 23t-133.5 65l-179 -150zM276 437q0 -76 22 -134t63 -97.5t99.5 -59.5t131.5 -20q80 0 151.5 26.5t127.5 77.5t93.5 124t50.5 166q6 45 6 84q0 75 -22 133t-62.5 97t-99 59.5t-131.5 20.5 q-80 0 -151 -27t-127 -78t-94.5 -124t-51.5 -165q-6 -44 -6 -83z" />
<glyph unicode="&#xa5;" d="M123 244l21 146h307l15 101l-9 29h-294l21 146h226l-222 694h193l208 -686l408 686h193l-426 -694h237l-21 -146h-305l-22 -35l-13 -95h321l-21 -146h-322l-35 -244h-188l35 244h-307z" />
<glyph unicode="&#xa6;" horiz-adv-x="394" d="M-30 -300l120 824h189l-120 -824h-189zM124 758l111 766h189l-111 -766h-189z" />
<glyph unicode="&#xa7;" horiz-adv-x="1142" d="M38 -380l40 138q40 -15 79.5 -29t81 -24.5t87.5 -16.5t100 -6q51 0 96 13.5t80 40t58 66t31 92.5q7 49 -13.5 86t-62.5 66.5t-101.5 53.5t-130.5 48q-164 55 -239 131.5t-75 187.5q0 14 1 28t3 29q15 100 67 168.5t133 115.5q-30 35 -46.5 75.5t-16.5 89.5q0 20 3 43 q13 89 52.5 157.5t102.5 115.5t147.5 71t186.5 24q57 0 110 -8t99 -20t82.5 -26.5t59.5 -27.5l-53 -142q-36 14 -70.5 28t-71.5 25t-79.5 18t-93.5 7q-123 0 -195.5 -56t-87.5 -156q-6 -41 5.5 -75.5t43 -65.5t86 -59t134.5 -56q90 -31 155 -66t107 -77t62 -91t20 -108 q0 -14 -1.5 -29t-3.5 -31q-14 -94 -60 -161t-118 -115q51 -65 51 -147q0 -23 -3 -45q-12 -87 -51.5 -155t-100.5 -114.5t-141.5 -70.5t-175.5 -24q-56 0 -109 8t-101 20t-89 27t-74 29zM252 508q0 -34 12.5 -65.5t39.5 -59.5t69.5 -52t103.5 -43q75 -23 137 -48.5t111 -55.5 q42 29 69.5 71t35.5 99q2 12 3 23t1 22q0 39 -14 70.5t-46 59t-84 53t-127 52.5q-51 19 -97 39.5t-87 45.5q-51 -29 -83.5 -74t-41.5 -107q-1 -8 -1.5 -15t-0.5 -15z" />
<glyph unicode="&#xa8;" horiz-adv-x="927" d="M202 1226l19 176h207l-19 -176h-207zM669 1226l19 176h210l-20 -176h-209z" />
<glyph unicode="&#xa9;" horiz-adv-x="1684" d="M152 560q0 58 9 120q24 166 95.5 296t177 220t239 137t280.5 47q129 0 238.5 -40t189 -115t124.5 -182.5t45 -242.5q0 -57 -9 -120q-24 -166 -95.5 -296t-177 -220t-238.5 -137t-280 -47q-129 0 -238.5 40t-189.5 115t-125 182.5t-45 242.5zM276 552q0 -122 37 -210 t102.5 -145t155 -84t194.5 -27q114 0 222.5 36t197 109.5t151 185t84.5 263.5q5 34 7.5 66t2.5 61q0 122 -37.5 210.5t-103.5 146t-156 85t-195 27.5q-114 0 -222 -36.5t-196 -110t-150 -186t-84 -263.5q-5 -35 -7.5 -66.5t-2.5 -61.5zM478 594q0 37 6 76q13 93 48.5 166.5 t89.5 124.5t126 78t159 27q82 0 137.5 -17.5t91.5 -44.5l-47 -110q-16 9 -33 17t-39 14.5t-51 10.5t-69 4q-51 0 -95 -15.5t-78.5 -48.5t-58.5 -84t-34 -122q-6 -39 -6 -72q0 -107 53.5 -154.5t143.5 -47.5q40 0 73.5 4t62 11.5t53.5 16.5t48 20l17 -104q-47 -30 -108.5 -52 t-147.5 -22q-81 0 -144.5 23t-107.5 65t-67 102t-23 134z" />
<glyph unicode="&#xaa;" horiz-adv-x="821" d="M109 831v17q0 8 2 16q7 46 35.5 86t73.5 68.5t105 45t130 16.5h134l3 20q2 14 3 25.5t1 22.5q0 62 -30.5 85t-86.5 23q-29 0 -60 -4t-62 -10t-60 -14.5t-52 -17.5l-19 108q28 13 62.5 24.5t72 20t76.5 13t76 4.5q54 0 99 -10t77.5 -34t50.5 -64t18 -101q0 -32 -6 -71 l-63 -432h-137l-2 75q-20 -15 -46 -31t-55.5 -28.5t-62.5 -21t-68 -8.5q-53 0 -92.5 13.5t-65.5 37.5t-38.5 56.5t-12.5 69.5zM270 860q-3 -22 3.5 -38t21 -26.5t35.5 -16t46 -5.5q23 0 47.5 6.5t47.5 16.5t44.5 22t38.5 23l19 130h-118q-51 0 -85.5 -12.5t-56 -30 t-31.5 -37t-12 -32.5z" />
<glyph unicode="&#xab;" horiz-adv-x="1056" d="M76 428l12 84l393 406l90 -110l-288 -336l192 -320l-121 -110zM504 428l12 84l393 406l90 -110l-288 -336l192 -320l-121 -110z" />
<glyph unicode="&#xac;" horiz-adv-x="1165" d="M100 594l21 146h943l-57 -390h-172l36 244h-771z" />
<glyph unicode="&#xad;" horiz-adv-x="1060" d="M48 586l21 146h942l-22 -146h-941z" />
<glyph unicode="&#xae;" horiz-adv-x="1684" d="M152 560q0 58 9 120q24 166 95.5 296t177 220t239 137t280.5 47q129 0 238.5 -40t189 -115t124.5 -182.5t45 -242.5q0 -57 -9 -120q-24 -166 -95.5 -296t-177 -220t-238.5 -137t-280 -47q-129 0 -238.5 40t-189.5 115t-125 182.5t-45 242.5zM276 552q0 -122 37 -210 t102.5 -145t155 -84t194.5 -27q114 0 222.5 36t197 109.5t151 185t84.5 263.5q5 34 7.5 66t2.5 61q0 122 -37.5 210.5t-103.5 146t-156 85t-195 27.5q-114 0 -222 -36.5t-196 -110t-150 -186t-84 -263.5q-5 -35 -7.5 -66.5t-2.5 -61.5zM541 332l105 722h281q52 0 96.5 -11 t77 -34.5t50.5 -59t18 -84.5q0 -20 -3 -41q-10 -69 -55.5 -114.5t-108.5 -72.5l113 -305h-143l-97 276h-161l-40 -276h-133zM730 716h181q17 3 36 10t35.5 19t29 30.5t16.5 44.5q10 67 -25.5 92.5t-107.5 25.5h-133z" />
<glyph unicode="&#xaf;" horiz-adv-x="947" d="M182 1256l16 146h741l-16 -146h-741z" />
<glyph unicode="&#xb0;" horiz-adv-x="677" d="M178 1120q0 8 0.5 15t1.5 15q7 48 31.5 89.5t60.5 71.5t81.5 47.5t93.5 17.5q45 0 83 -15t66 -41.5t44 -62.5t16 -77q0 -8 -0.5 -15t-1.5 -15q-7 -48 -32 -89t-61.5 -71t-82.5 -47t-96 -17q-44 0 -81 15t-64.5 41t-43 61.5t-15.5 76.5zM292 1150q-4 -25 3 -46.5 t21.5 -37.5t35.5 -25t46 -9q26 0 50 9.5t43.5 25.5t32.5 37.5t16 45.5q4 25 -2.5 47t-21 37.5t-36 24.5t-48.5 9q-24 0 -47.5 -9t-43 -25t-33 -37.5t-16.5 -46.5z" />
<glyph unicode="&#xb1;" horiz-adv-x="1023" d="M2 -1l21 143h818l-21 -143h-818zM106 634l21 146h332l46 316h154l-46 -316h332l-21 -146h-332l-46 -318h-154l46 318h-332z" />
<glyph unicode="&#xb2;" horiz-adv-x="742" d="M113 668l7 46q9 63 30 110t57.5 84.5t90 68t128.5 61.5q40 16 67 32.5t43.5 33t25 34.5t11.5 38q14 94 -123 94q-62 0 -115.5 -18t-112.5 -44l-21 94q22 12 52 25.5t65 25.5t74.5 19.5t81.5 7.5q111 0 172 -44.5t61 -125.5v-16q0 -8 -2 -16q-6 -42 -27.5 -75.5t-53 -60.5 t-71.5 -49t-84 -41q-41 -19 -74.5 -37.5t-59.5 -39.5t-44 -45.5t-27 -55.5h396l-16 -106h-531z" />
<glyph unicode="&#xb3;" horiz-adv-x="675" d="M73 702l44 90q47 -17 90.5 -28.5t100.5 -11.5q76 0 128 26t60 82q9 59 -30 84.5t-115 25.5h-139l15 104h139q63 0 103.5 23.5t48.5 76.5q8 57 -28.5 79.5t-105.5 22.5q-52 0 -96.5 -11t-94.5 -29l-19 88q24 13 54.5 23.5t62.5 18t63 11t55 3.5q120 0 182.5 -45.5 t62.5 -125.5v-15q0 -8 -2 -16q-8 -57 -42.5 -96t-93.5 -60q62 -21 89.5 -63t19.5 -103q-14 -97 -93.5 -151.5t-226.5 -54.5q-60 0 -123 12.5t-109 39.5z" />
<glyph unicode="&#xb4;" horiz-adv-x="595" d="M193 1152l234 268l198 -60l-301 -248z" />
<glyph unicode="&#xb5;" horiz-adv-x="1160" d="M28 -400l203 1400h188l-102 -702q-3 -21 -3 -40q0 -73 43.5 -102.5t135.5 -29.5q68 0 133 28t127 75l112 771h188l-145 -1000h-169l4 108q-69 -60 -143.5 -94t-152.5 -34q-51 0 -95 8t-76 26l-60 -414h-188z" />
<glyph unicode="&#x3bc;" horiz-adv-x="1160" d="M28 -400l203 1400h188l-102 -702q-3 -21 -3 -40q0 -73 43.5 -102.5t135.5 -29.5q68 0 133 28t127 75l112 771h188l-145 -1000h-169l4 108q-69 -60 -143.5 -94t-152.5 -34q-51 0 -95 8t-76 26l-60 -414h-188z" />
<glyph unicode="&#xb6;" horiz-adv-x="1001" d="M145 875q0 17 1.5 33.5t3.5 33.5q14 98 59 175.5t117 131.5t169.5 82.5t216.5 28.5h239l-197 -1360h-188l75 520h-51q-105 0 -187.5 25t-139.5 71.5t-87.5 112t-30.5 146.5z" />
<glyph unicode="&#xb7;" horiz-adv-x="420" d="M14 0l28 196h216l-28 -196h-216z" />
<glyph unicode="&#xb8;" horiz-adv-x="587" d="M16 -270q114 11 170 60.5t56 122.5q0 51 -25 107h175q17 -49 17 -97q0 -59 -24.5 -113.5t-72.5 -96.5t-118 -67.5t-161 -25.5z" />
<glyph unicode="&#xb9;" horiz-adv-x="481" d="M87 668l13 96h115l70 486l-130 -36l15 100l180 62h83l-89 -612h109l-14 -96h-352z" />
<glyph unicode="&#xba;" horiz-adv-x="814" d="M132 943q0 36 6 75q13 87 45.5 154t81 113.5t112 70.5t137.5 24q66 0 119 -20t90.5 -57.5t58 -92t20.5 -122.5q0 -17 -1 -34t-4 -36q-13 -87 -46.5 -154.5t-84 -113.5t-116 -70t-141.5 -24q-64 0 -115 19.5t-87 56.5t-55.5 90t-19.5 121zM291 946q0 -44 10 -75.5 t28 -51.5t43 -29.5t55 -9.5q38 0 72.5 14t62 43t47.5 74t29 107q6 39 6 71q0 91 -40.5 130t-106.5 39q-35 0 -67 -14t-58.5 -43t-46 -74.5t-28.5 -108.5q-6 -39 -6 -72z" />
<glyph unicode="&#xbb;" horiz-adv-x="1058" d="M17 152l286 336l-191 320l119 110l278 -386l-12 -84l-393 -406zM447 152l286 336l-191 320l119 110l278 -386l-12 -84l-393 -406z" />
<glyph unicode="&#xbc;" horiz-adv-x="1373" d="M124 672l13 96h115l70 486l-130 -36l15 100l180 62h83l-89 -612h109l-14 -96h-352zM95 0l1079 1360h150l-1076 -1360h-153zM648 149l11 76l450 486h137l-68 -464h92l-15 -98h-91l-21 -146h-128l21 146h-388zM803 247h248l46 318z" />
<glyph unicode="&#xbd;" horiz-adv-x="1492" d="M761 -1l7 46q9 63 30 110t57.5 84.5t90 68t128.5 61.5q40 16 67 32.5t43.5 33t25 34.5t11.5 38q14 94 -123 94q-62 0 -115.5 -18t-112.5 -44l-21 94q22 12 52 25.5t65 25.5t74.5 19.5t81.5 7.5q111 0 172 -44.5t61 -125.5v-16q0 -8 -2 -16q-6 -42 -27.5 -75.5t-53 -60.5 t-71.5 -49t-84 -41q-41 -19 -74.5 -37.5t-59.5 -39.5t-44 -45.5t-27 -55.5h396l-16 -106h-531zM123 668l13 96h115l70 486l-130 -36l15 100l180 62h83l-89 -612h109l-14 -96h-352zM115 0l1079 1360h150l-1076 -1360h-153z" />
<glyph unicode="&#xbe;" horiz-adv-x="1375" d="M73 702l44 90q47 -17 90.5 -28.5t100.5 -11.5q76 0 128 26t60 82q9 59 -30 84.5t-115 25.5h-139l15 104h139q63 0 103.5 23.5t48.5 76.5q8 57 -28.5 79.5t-105.5 22.5q-52 0 -96.5 -11t-94.5 -29l-19 88q24 13 54.5 23.5t62.5 18t63 11t55 3.5q120 0 182.5 -45.5 t62.5 -125.5v-15q0 -8 -2 -16q-8 -57 -42.5 -96t-93.5 -60q62 -21 89.5 -63t19.5 -103q-14 -97 -93.5 -151.5t-226.5 -54.5q-60 0 -123 12.5t-109 39.5zM145 0l1079 1360h150l-1076 -1360h-153zM653 149l11 76l450 486h137l-68 -464h92l-15 -98h-91l-21 -146h-128l21 146 h-388zM808 247h248l46 318z" />
<glyph unicode="&#xbf;" horiz-adv-x="943" d="M937.011 -250.924q-32.998 -21.998 -76.4951 -44.4971t-94.9941 -41.4971q-51.4971 -18.999 -111.493 -30.998q-59.9961 -12 -125.992 -12q-81.9951 0 -146.991 19.999t-110.493 57.9961q-45.4971 37.998 -69.4961 91.9951q-23.998 53.9961 -23.998 122.992 q0 13.999 1 28.498t2.99902 30.498q11 73.9961 46.498 129.992q35.4971 55.9971 83.4941 100.994t102.994 83.4951q54.9961 38.4971 103.993 75.4951q26.999 21.998 46.4971 46.9971q19.499 24.998 32.998 57.4961q13.5 32.498 22.499 74.4961 q8.99902 41.9971 16.999 96.9941h173.989q-11.999 -78.9951 -29.498 -137.992q-17.499 -58.9961 -43.4971 -104.993q-25.999 -45.9971 -62.9961 -82.9951q-36.998 -36.998 -86.9951 -73.9951q-48.9971 -34.998 -86.9951 -66.4961q-37.9971 -31.498 -65.4951 -62.9961 q-27.499 -31.498 -43.998 -64.9961t-22.498 -73.4961q-2 -7.99902 -2 -15.999v-15.999q0 -77.9951 54.9961 -124.492q54.9971 -46.4971 150.991 -46.4971q46.9971 0 90.4941 8.99902q43.498 9 84.4951 23.999t80.4951 34.498t78.4951 41.4971zM872.015 1000 l-25.998 -175.989h-186.988l25.998 175.989h186.988z" />
<glyph unicode="&#xc0;" horiz-adv-x="1281" d="M-21 0l673 1360h192l282 -1360h-188l-66 346h-539l-166 -346h-188zM403 492h441l-125 658zM464 1720l211 60l177 -268l-141 -40z" />
<glyph unicode="&#xc1;" horiz-adv-x="1281" d="M-21 0l673 1360h192l282 -1360h-188l-66 346h-539l-166 -346h-188zM403 492h441l-125 658zM679 1514l234 268l198 -60l-301 -248z" />
<glyph unicode="&#xc2;" horiz-adv-x="1281" d="M-21 0l673 1360h192l282 -1360h-188l-66 346h-539l-166 -346h-188zM403 492h441l-125 658zM445 1472l320 232h118l249 -232h-197l-128 117l-162 -117h-200z" />
<glyph unicode="&#xc3;" horiz-adv-x="1281" d="M-21 0l673 1360h192l282 -1360h-188l-66 346h-539l-166 -346h-188zM403 492h441l-125 658zM406 1570q19 35 44 63t53 48t57 33t55 18q16 3 33 3q53 0 94.5 -23.5t76.5 -51.5q25 -24 51.5 -33t44.5 -9q13 0 30 5.5t34 17.5t33.5 30t29.5 43l91 -80q-19 -36 -44 -64 t-52.5 -48t-56 -32t-54.5 -16q-19 -4 -41 -4q-52 0 -91 23t-73 51q-28 23 -53 34.5t-42 9.5q-14 -1 -28 -4.5t-29 -13.5t-32 -28t-38 -46z" />
<glyph unicode="&#xc4;" horiz-adv-x="1281" d="M-21 0l673 1360h192l282 -1360h-188l-66 346h-539l-166 -346h-188zM403 492h441l-125 658zM441 1472l19 176h207l-19 -176h-207zM908 1472l19 176h210l-20 -176h-209z" />
<glyph unicode="&#xc5;" horiz-adv-x="1281" d="M-21 0l673 1360h192l282 -1360h-188l-66 346h-539l-166 -346h-188zM403 492h441l-125 658zM589 1666q6 41 27 76.5t52.5 61.5t71 41t81.5 15q40 0 75 -15.5t59 -42t35.5 -61.5t5.5 -75q-6 -42 -27 -77.5t-52.5 -61.5t-71 -40.5t-81.5 -14.5q-41 0 -75.5 15t-58.5 41.5 t-35.5 61.5t-5.5 76zM711 1666q-2 -16 2.5 -30.5t14 -25t23.5 -16.5t30 -6q35 0 61.5 23t31.5 55q5 34 -15 56t-55 22q-16 0 -32 -6t-28.5 -16.5t-21.5 -25t-11 -30.5z" />
<glyph unicode="&#xc6;" horiz-adv-x="1872" d="M14 0l1044 1360h818l-22 -146h-580l-65 -444h519l-22 -146h-518l-69 -478h580l-21 -146h-769l51 346h-474l-263 -346h-209zM597 492h384l90 622z" />
<glyph unicode="&#xc7;" horiz-adv-x="1077" d="M114 537q0 35 3 71t8 74q24 163 84.5 292.5t151 219.5t208.5 138t257 48q48 0 86.5 -5.5t71 -14.5t59 -21t49.5 -25l-71 -130q-44 23 -96.5 36.5t-119.5 13.5q-89 0 -169.5 -32t-145 -99.5t-110.5 -171.5t-67 -249q-12 -86 -12 -158q0 -106 25.5 -181.5t73 -123.5 t115 -70.5t151.5 -22.5q40 0 75.5 5.5t67 14.5t58.5 19.5t49 20.5l22 -128q-56 -33 -131.5 -55.5t-183.5 -22.5q-119 0 -213 39t-160 112t-101 175.5t-35 230.5zM318 -270q114 11 170 60.5t56 122.5q0 51 -25 107h175q17 -49 17 -97q0 -59 -24.5 -113.5t-72.5 -96.5 t-118 -67.5t-161 -25.5z" />
<glyph unicode="&#xc8;" horiz-adv-x="1031" d="M86 0l197 1360h769l-21 -146h-581l-65 -444h519l-21 -146h-519l-69 -478h581l-21 -146h-769zM379 1718l211 60l177 -268l-141 -40z" />
<glyph unicode="&#xc9;" horiz-adv-x="1031" d="M86 0l197 1360h769l-21 -146h-581l-65 -444h519l-21 -146h-519l-69 -478h581l-21 -146h-769zM594 1512l234 268l198 -60l-301 -248z" />
<glyph unicode="&#xca;" horiz-adv-x="1031" d="M86 0l197 1360h769l-21 -146h-581l-65 -444h519l-21 -146h-519l-69 -478h581l-21 -146h-769zM360 1470l320 232h118l249 -232h-197l-128 117l-162 -117h-200z" />
<glyph unicode="&#xcb;" horiz-adv-x="1031" d="M86 0l197 1360h769l-21 -146h-581l-65 -444h519l-21 -146h-519l-69 -478h581l-21 -146h-769zM356 1470l19 176h207l-19 -176h-207zM823 1470l19 176h210l-20 -176h-209z" />
<glyph unicode="&#xcc;" horiz-adv-x="806" d="M42 0l21 146h177l155 1068h-177l21 146h545l-21 -146h-180l-155 -1068h180l-21 -146h-545zM225 1718l211 60l177 -268l-141 -40z" />
<glyph unicode="&#xcd;" horiz-adv-x="806" d="M42 0l21 146h177l155 1068h-177l21 146h545l-21 -146h-180l-155 -1068h180l-21 -146h-545zM441 1512l234 268l198 -60l-301 -248z" />
<glyph unicode="&#xce;" horiz-adv-x="806" d="M42 0l21 146h177l155 1068h-177l21 146h545l-21 -146h-180l-155 -1068h180l-21 -146h-545zM206 1470l320 232h118l249 -232h-197l-128 117l-162 -117h-200z" />
<glyph unicode="&#xcf;" horiz-adv-x="806" d="M42 0l21 146h177l155 1068h-177l21 146h545l-21 -146h-180l-155 -1068h180l-21 -146h-545zM202 1470l19 176h207l-19 -176h-207zM669 1470l19 176h210l-20 -176h-209z" />
<glyph unicode="&#xd0;" horiz-adv-x="1364" d="M105 630l21 146h129l85 584h403q123 0 222 -38.5t169 -109.5t107.5 -172t37.5 -227q0 -32 -2.5 -64t-7.5 -67q-23 -158 -85 -284.5t-156.5 -215t-216.5 -135.5t-265 -47h-404l92 630h-129zM352 146h194q99 0 187.5 31.5t159 97t119.5 166.5t69 241q5 38 8 72.5t3 66.5 q0 105 -28 180t-79.5 122t-124 69t-160.5 22h-193l-64 -438h270l-21 -146h-270z" />
<glyph unicode="&#xd1;" horiz-adv-x="1396" d="M85 0l197 1360h188v-1l1 1l520 -1056l153 1056h188l-197 -1360h-188l-521 1058l-153 -1058h-188zM451 1568q19 35 44 63t53 48t57 33t55 18q16 3 33 3q53 0 94.5 -23.5t76.5 -51.5q25 -24 51.5 -33t44.5 -9q13 0 30 5.5t34 17.5t33.5 30t29.5 43l91 -80q-19 -36 -44 -64 t-52.5 -48t-56 -32t-54.5 -16q-19 -4 -41 -4q-52 0 -91 23t-73 51q-28 23 -53 34.5t-42 9.5q-14 -1 -28 -4.5t-29 -13.5t-32 -28t-38 -46z" />
<glyph unicode="&#xd2;" horiz-adv-x="1351" d="M104 531q0 35 3 72.5t8 76.5q24 166 84.5 296t149 220t199.5 137t237 47q107 0 195.5 -38t151.5 -109.5t98 -174t35 -231.5q0 -35 -3 -72t-8 -75q-24 -167 -85.5 -297t-150 -219.5t-200 -136.5t-236.5 -47q-107 0 -195 37.5t-151 109t-97.5 173.5t-34.5 231zM290 519 q0 -101 22 -175t63 -122.5t99 -72t129 -23.5q82 0 157.5 34.5t136.5 103.5t105 173t64 243q6 45 9.5 84.5t3.5 76.5q0 101 -22.5 175t-63.5 122.5t-99 72t-130 23.5q-81 0 -156 -34.5t-136 -103.5t-105 -173t-64 -243q-6 -45 -9.5 -84.5t-3.5 -76.5zM495 1736l211 60 l177 -268l-141 -40z" />
<glyph unicode="&#xd3;" horiz-adv-x="1351" d="M104 531q0 35 3 72.5t8 76.5q24 166 84.5 296t149 220t199.5 137t237 47q107 0 195.5 -38t151.5 -109.5t98 -174t35 -231.5q0 -35 -3 -72t-8 -75q-24 -167 -85.5 -297t-150 -219.5t-200 -136.5t-236.5 -47q-107 0 -195 37.5t-151 109t-97.5 173.5t-34.5 231zM290 519 q0 -101 22 -175t63 -122.5t99 -72t129 -23.5q82 0 157.5 34.5t136.5 103.5t105 173t64 243q6 45 9.5 84.5t3.5 76.5q0 101 -22.5 175t-63.5 122.5t-99 72t-130 23.5q-81 0 -156 -34.5t-136 -103.5t-105 -173t-64 -243q-6 -45 -9.5 -84.5t-3.5 -76.5zM710 1530l234 268 l198 -60l-301 -248z" />
<glyph unicode="&#xd4;" horiz-adv-x="1351" d="M104 531q0 35 3 72.5t8 76.5q24 166 84.5 296t149 220t199.5 137t237 47q107 0 195.5 -38t151.5 -109.5t98 -174t35 -231.5q0 -35 -3 -72t-8 -75q-24 -167 -85.5 -297t-150 -219.5t-200 -136.5t-236.5 -47q-107 0 -195 37.5t-151 109t-97.5 173.5t-34.5 231zM290 519 q0 -101 22 -175t63 -122.5t99 -72t129 -23.5q82 0 157.5 34.5t136.5 103.5t105 173t64 243q6 45 9.5 84.5t3.5 76.5q0 101 -22.5 175t-63.5 122.5t-99 72t-130 23.5q-81 0 -156 -34.5t-136 -103.5t-105 -173t-64 -243q-6 -45 -9.5 -84.5t-3.5 -76.5zM476 1488l320 232h118 l249 -232h-197l-128 117l-162 -117h-200z" />
<glyph unicode="&#xd5;" horiz-adv-x="1351" d="M104 531q0 35 3 72.5t8 76.5q24 166 84.5 296t149 220t199.5 137t237 47q107 0 195.5 -38t151.5 -109.5t98 -174t35 -231.5q0 -35 -3 -72t-8 -75q-24 -167 -85.5 -297t-150 -219.5t-200 -136.5t-236.5 -47q-107 0 -195 37.5t-151 109t-97.5 173.5t-34.5 231zM290 519 q0 -101 22 -175t63 -122.5t99 -72t129 -23.5q82 0 157.5 34.5t136.5 103.5t105 173t64 243q6 45 9.5 84.5t3.5 76.5q0 101 -22.5 175t-63.5 122.5t-99 72t-130 23.5q-81 0 -156 -34.5t-136 -103.5t-105 -173t-64 -243q-6 -45 -9.5 -84.5t-3.5 -76.5zM437 1586q19 35 44 63 t53 48t57 33t55 18q16 3 33 3q53 0 94.5 -23.5t76.5 -51.5q25 -24 51.5 -33t44.5 -9q13 0 30 5.5t34 17.5t33.5 30t29.5 43l91 -80q-19 -36 -44 -64t-52.5 -48t-56 -32t-54.5 -16q-19 -4 -41 -4q-52 0 -91 23t-73 51q-28 23 -53 34.5t-42 9.5q-14 -1 -28 -4.5t-29 -13.5 t-32 -28t-38 -46z" />
<glyph unicode="&#xd6;" horiz-adv-x="1351" d="M104 531q0 35 3 72.5t8 76.5q24 166 84.5 296t149 220t199.5 137t237 47q107 0 195.5 -38t151.5 -109.5t98 -174t35 -231.5q0 -35 -3 -72t-8 -75q-24 -167 -85.5 -297t-150 -219.5t-200 -136.5t-236.5 -47q-107 0 -195 37.5t-151 109t-97.5 173.5t-34.5 231zM290 519 q0 -101 22 -175t63 -122.5t99 -72t129 -23.5q82 0 157.5 34.5t136.5 103.5t105 173t64 243q6 45 9.5 84.5t3.5 76.5q0 101 -22.5 175t-63.5 122.5t-99 72t-130 23.5q-81 0 -156 -34.5t-136 -103.5t-105 -173t-64 -243q-6 -45 -9.5 -84.5t-3.5 -76.5zM472 1488l19 176h207 l-19 -176h-207zM939 1488l19 176h210l-20 -176h-209z" />
<glyph unicode="&#xd7;" horiz-adv-x="1011" d="M68 376l337 282l-255 282l124 102l254 -281l335 281l93 -104l-334 -280l253 -280l-124 -104l-253 280l-335 -280z" />
<glyph unicode="&#xd8;" horiz-adv-x="1324" d="M47 -1l138 171q-45 68 -69.5 157t-24.5 198q0 74 12 155q24 166 84.5 296t148.5 220t199 137t237 47q91 0 170 -27t140 -79l70 86h159l-147 -182q43 -67 65.5 -154t22.5 -193q0 -36 -2.5 -73.5t-8.5 -77.5q-24 -167 -85 -297t-149.5 -219.5t-200 -136.5t-237.5 -47 q-88 0 -164 25t-136 73l-64 -79h-158zM279 521q0 -116 30 -198l665 818q-41 47 -97.5 70t-125.5 23q-81 0 -156 -34.5t-135.5 -103.5t-104.5 -173t-64 -243q-12 -87 -12 -159zM376 210q81 -84 215 -84q82 0 157 34.5t136 103.5t105 173t64 243q12 87 12 157q0 107 -26 188z " />
<glyph unicode="&#xd9;" horiz-adv-x="1364" d="M140 342q0 17 1 34.5t4 35.5l138 948h188l-137 -948q-2 -14 -3 -27t-1 -26q0 -58 20 -101.5t57 -73t89 -44t115 -14.5q70 0 131.5 19t110 55t80.5 89.5t42 122.5l137 948h188l-137 -948q-15 -107 -64 -187.5t-124 -135t-173 -82t-212 -27.5q-100 0 -183 24t-142 70 t-92 113.5t-33 154.5zM503 1718l211 60l177 -268l-141 -40z" />
<glyph unicode="&#xda;" horiz-adv-x="1364" d="M140 342q0 17 1 34.5t4 35.5l138 948h188l-137 -948q-2 -14 -3 -27t-1 -26q0 -58 20 -101.5t57 -73t89 -44t115 -14.5q70 0 131.5 19t110 55t80.5 89.5t42 122.5l137 948h188l-137 -948q-15 -107 -64 -187.5t-124 -135t-173 -82t-212 -27.5q-100 0 -183 24t-142 70 t-92 113.5t-33 154.5zM718 1512l234 268l198 -60l-301 -248z" />
<glyph unicode="&#xdb;" horiz-adv-x="1364" d="M140 342q0 17 1 34.5t4 35.5l138 948h188l-137 -948q-2 -14 -3 -27t-1 -26q0 -58 20 -101.5t57 -73t89 -44t115 -14.5q70 0 131.5 19t110 55t80.5 89.5t42 122.5l137 948h188l-137 -948q-15 -107 -64 -187.5t-124 -135t-173 -82t-212 -27.5q-100 0 -183 24t-142 70 t-92 113.5t-33 154.5zM484 1470l320 232h118l249 -232h-197l-128 117l-162 -117h-200z" />
<glyph unicode="&#xdc;" horiz-adv-x="1364" d="M140 342q0 17 1 34.5t4 35.5l138 948h188l-137 -948q-2 -14 -3 -27t-1 -26q0 -58 20 -101.5t57 -73t89 -44t115 -14.5q70 0 131.5 19t110 55t80.5 89.5t42 122.5l137 948h188l-137 -948q-15 -107 -64 -187.5t-124 -135t-173 -82t-212 -27.5q-100 0 -183 24t-142 70 t-92 113.5t-33 154.5zM480 1470l19 176h207l-19 -176h-207zM947 1470l19 176h210l-20 -176h-209z" />
<glyph unicode="&#xdd;" d="M176 1360h193l208 -686l409 686h193l-537 -875l-71 -485h-188l71 491zM604 1512l234 268l198 -60l-301 -248z" />
<glyph unicode="&#xde;" horiz-adv-x="1133" d="M78 0l197 1360h188l-43 -300h258q97 0 173 -22t128.5 -63.5t80 -100t27.5 -131.5q0 -15 -1.5 -30t-3.5 -31q-13 -89 -53.5 -159.5t-106 -120t-155 -76t-199.5 -26.5h-258l-44 -300h-188zM331 446h236q66 0 121 14t96.5 43t67.5 73.5t35 105.5q2 14 3 26t1 23q0 49 -17 84 t-50 57t-80.5 32t-108.5 10h-236z" />
<glyph unicode="&#xdf;" horiz-adv-x="1244" d="M40 -192l169 1170q13 92 56 169.5t109 134t153 88.5t189 32q173 0 260 -64t87 -175q0 -21 -3 -45q-5 -35 -15 -62t-23.5 -48.5t-29.5 -39.5t-32 -34q-35 -42 -58 -77.5t-31 -86.5q-4 -27 3 -50t21.5 -43t33.5 -39t40 -38q25 -22 48.5 -45.5t42 -51.5t30 -62t11.5 -76 q0 -21 -3 -45q-14 -95 -60.5 -161.5t-113 -108.5t-148 -61t-165.5 -19q-75 0 -135 10.5t-94 19.5l47 146q30 -9 81 -19.5t124 -10.5q48 0 94 12t84 37.5t64 64.5t34 92q4 30 -3.5 55.5t-22.5 47t-34 40t-36 35.5q-26 24 -50 48t-43 51.5t-30 59t-11 70.5q0 20 3 41 q11 70 42 126.5t82 113.5q9 10 19.5 22.5t20 27t16.5 29.5t9 29q4 31 -4 56.5t-30.5 43.5t-59 28t-88.5 10q-54 0 -103.5 -22t-88.5 -59.5t-65.5 -88t-35.5 -108.5l-169 -1170h-188z" />
<glyph unicode="&#xe0;" horiz-adv-x="1060" d="M83 297q0 53 9 113q20 136 70 248.5t120.5 192.5t157.5 124.5t181 44.5q71 0 123 -24t86 -54l32 58h140l-145 -1000h-165l-1 133q-65 -73 -140 -113t-178 -40q-143 0 -216.5 81t-73.5 236zM275 341q0 -55 14 -95.5t37.5 -67t55 -39.5t66.5 -13q33 0 67 9.5t66.5 26 t63.5 38.5t59 47l86 592q-32 13 -72 24t-83 11q-60 0 -117.5 -33t-105 -93.5t-82.5 -146t-50 -191.5q-3 -19 -4 -36t-1 -33zM316 1398l211 60l177 -268l-141 -40z" />
<glyph unicode="&#xe1;" horiz-adv-x="1060" d="M83 297q0 53 9 113q20 136 70 248.5t120.5 192.5t157.5 124.5t181 44.5q71 0 123 -24t86 -54l32 58h140l-145 -1000h-165l-1 133q-65 -73 -140 -113t-178 -40q-143 0 -216.5 81t-73.5 236zM275 341q0 -55 14 -95.5t37.5 -67t55 -39.5t66.5 -13q33 0 67 9.5t66.5 26 t63.5 38.5t59 47l86 592q-32 13 -72 24t-83 11q-60 0 -117.5 -33t-105 -93.5t-82.5 -146t-50 -191.5q-3 -19 -4 -36t-1 -33zM531 1192l234 268l198 -60l-301 -248z" />
<glyph unicode="&#xe2;" horiz-adv-x="1060" d="M83 297q0 53 9 113q20 136 70 248.5t120.5 192.5t157.5 124.5t181 44.5q71 0 123 -24t86 -54l32 58h140l-145 -1000h-165l-1 133q-65 -73 -140 -113t-178 -40q-143 0 -216.5 81t-73.5 236zM275 341q0 -55 14 -95.5t37.5 -67t55 -39.5t66.5 -13q33 0 67 9.5t66.5 26 t63.5 38.5t59 47l86 592q-32 13 -72 24t-83 11q-60 0 -117.5 -33t-105 -93.5t-82.5 -146t-50 -191.5q-3 -19 -4 -36t-1 -33zM297 1150l320 232h118l249 -232h-197l-128 117l-162 -117h-200z" />
<glyph unicode="&#xe3;" horiz-adv-x="1060" d="M83 297q0 53 9 113q20 136 70 248.5t120.5 192.5t157.5 124.5t181 44.5q71 0 123 -24t86 -54l32 58h140l-145 -1000h-165l-1 133q-65 -73 -140 -113t-178 -40q-143 0 -216.5 81t-73.5 236zM275 341q0 -55 14 -95.5t37.5 -67t55 -39.5t66.5 -13q33 0 67 9.5t66.5 26 t63.5 38.5t59 47l86 592q-32 13 -72 24t-83 11q-60 0 -117.5 -33t-105 -93.5t-82.5 -146t-50 -191.5q-3 -19 -4 -36t-1 -33zM259 1248q19 35 44 63t53 48t57 33t55 18q16 3 33 3q53 0 94.5 -23.5t76.5 -51.5q25 -24 51.5 -33t44.5 -9q13 0 30 5.5t34 17.5t33.5 30t29.5 43 l91 -80q-19 -36 -44 -64t-52.5 -48t-56 -32t-54.5 -16q-19 -4 -41 -4q-52 0 -91 23t-73 51q-28 23 -53 34.5t-42 9.5q-14 -1 -28 -4.5t-29 -13.5t-32 -28t-38 -46z" />
<glyph unicode="&#xe4;" horiz-adv-x="1060" d="M83 297q0 53 9 113q20 136 70 248.5t120.5 192.5t157.5 124.5t181 44.5q71 0 123 -24t86 -54l32 58h140l-145 -1000h-165l-1 133q-65 -73 -140 -113t-178 -40q-143 0 -216.5 81t-73.5 236zM275 341q0 -55 14 -95.5t37.5 -67t55 -39.5t66.5 -13q33 0 67 9.5t66.5 26 t63.5 38.5t59 47l86 592q-32 13 -72 24t-83 11q-60 0 -117.5 -33t-105 -93.5t-82.5 -146t-50 -191.5q-3 -19 -4 -36t-1 -33zM293 1151l19 176h207l-19 -176h-207zM760 1151l19 176h210l-20 -176h-209z" />
<glyph unicode="&#xe5;" horiz-adv-x="1060" d="M83 297q0 53 9 113q20 136 70 248.5t120.5 192.5t157.5 124.5t181 44.5q71 0 123 -24t86 -54l32 58h140l-145 -1000h-165l-1 133q-65 -73 -140 -113t-178 -40q-143 0 -216.5 81t-73.5 236zM275 341q0 -55 14 -95.5t37.5 -67t55 -39.5t66.5 -13q33 0 67 9.5t66.5 26 t63.5 38.5t59 47l86 592q-32 13 -72 24t-83 11q-60 0 -117.5 -33t-105 -93.5t-82.5 -146t-50 -191.5q-3 -19 -4 -36t-1 -33zM441 1345q6 41 27 76.5t52.5 61.5t71 41t81.5 15q40 0 75 -15.5t59 -42t35.5 -61.5t5.5 -75q-6 -42 -27 -77.5t-52.5 -61.5t-71 -40.5t-81.5 -14.5 q-41 0 -75.5 15t-58.5 41.5t-35.5 61.5t-5.5 76zM563 1345q-2 -16 2.5 -30.5t14 -25t23.5 -16.5t30 -6q35 0 61.5 23t31.5 55q5 34 -15 56t-55 22q-16 0 -32 -6t-28.5 -16.5t-21.5 -25t-11 -30.5z" />
<glyph unicode="&#xe6;" horiz-adv-x="1688" d="M54 220q0 22 3 46q9 66 47 120.5t96.5 93.5t132.5 60.5t157 21.5h228l9 60q4 25 5.5 46.5t1.5 40.5q0 46 -11 75.5t-33.5 46.5t-56.5 24t-81 7q-36 0 -78 -6t-82.5 -16t-77.5 -22t-63 -24l-28 136q37 18 82.5 34.5t94 28.5t98 19.5t96.5 7.5q52 0 98.5 -6.5t85 -22.5 t68.5 -41.5t48 -63.5q69 66 156 100t190 34q74 0 138.5 -22.5t112 -65t74.5 -104t27 -139.5q0 -16 -1.5 -33t-3.5 -34l-21 -146h-670q-2 -20 -3.5 -39.5t-1.5 -37.5q0 -131 65 -202t193 -71q96 0 165.5 19t116.5 37l27 -128q-65 -35 -150.5 -54.5t-179.5 -19.5 q-112 0 -199 33t-141 96q-33 -20 -78.5 -41.5t-104 -39.5t-129 -30t-153.5 -12q-66 0 -116 17.5t-84 48.5t-51.5 74t-17.5 94zM244 260q-5 -36 4.5 -60.5t30.5 -39.5t51.5 -21.5t65.5 -6.5q44 0 84 4t74.5 10t62 13.5t45.5 14.5l38 264h-206q-63 0 -107.5 -14t-74.5 -38.5 t-46.5 -57t-21.5 -68.5zM925 622h474q2 15 3 29t1 28q0 53 -15 90t-40 60.5t-59 34t-71 10.5q-50 0 -94.5 -12t-81.5 -41.5t-66.5 -78t-50.5 -120.5z" />
<glyph unicode="&#xe7;" horiz-adv-x="923" d="M86 404q0 23 1.5 47.5t5.5 50.5q18 121 64.5 217t118 163t164.5 102.5t203 35.5q88 0 154 -14t107 -40l-72 -136q-16 8 -33.5 16t-40 14t-51 10t-65.5 4q-67 0 -126.5 -21.5t-106.5 -67t-80.5 -116t-47.5 -167.5q-4 -28 -6 -53t-2 -48q0 -73 18.5 -125t52.5 -85.5t82 -49 t107 -15.5q79 0 136.5 14t102.5 34l29 -128q-50 -30 -122.5 -48t-166.5 -18q-99 0 -178 30t-134 85.5t-84.5 133.5t-29.5 175zM204 -270q114 11 170 60.5t56 122.5q0 51 -25 107h175q17 -49 17 -97q0 -59 -24.5 -113.5t-72.5 -96.5t-118 -67.5t-161 -25.5z" />
<glyph unicode="&#xe8;" horiz-adv-x="1066" d="M82 386q0 25 2 51.5t6 54.5q19 129 65 227.5t115 165.5t157.5 101t191.5 34q74 0 138.5 -22.5t112 -65t75 -104t27.5 -139.5q0 -16 -1.5 -33t-3.5 -34l-21 -146h-670q-2 -20 -3.5 -40t-1.5 -38q0 -131 64.5 -201.5t193.5 -70.5q96 0 165.5 19t116.5 37l27 -128 q-65 -35 -150.5 -54.5t-179.5 -19.5q-101 0 -180 27t-133.5 79t-83.5 127.5t-29 172.5zM305 622h474q2 15 3 29t1 28q0 53 -15 90t-40 60.5t-59 34t-71 10.5q-50 0 -94.5 -12t-82 -41.5t-67 -78t-49.5 -120.5zM308 1398l211 60l177 -268l-141 -40z" />
<glyph unicode="&#xe9;" horiz-adv-x="1066" d="M82 386q0 25 2 51.5t6 54.5q19 129 65 227.5t115 165.5t157.5 101t191.5 34q74 0 138.5 -22.5t112 -65t75 -104t27.5 -139.5q0 -16 -1.5 -33t-3.5 -34l-21 -146h-670q-2 -20 -3.5 -40t-1.5 -38q0 -131 64.5 -201.5t193.5 -70.5q96 0 165.5 19t116.5 37l27 -128 q-65 -35 -150.5 -54.5t-179.5 -19.5q-101 0 -180 27t-133.5 79t-83.5 127.5t-29 172.5zM305 622h474q2 15 3 29t1 28q0 53 -15 90t-40 60.5t-59 34t-71 10.5q-50 0 -94.5 -12t-82 -41.5t-67 -78t-49.5 -120.5zM523 1192l234 268l198 -60l-301 -248z" />
<glyph unicode="&#xea;" horiz-adv-x="1066" d="M82 386q0 25 2 51.5t6 54.5q19 129 65 227.5t115 165.5t157.5 101t191.5 34q74 0 138.5 -22.5t112 -65t75 -104t27.5 -139.5q0 -16 -1.5 -33t-3.5 -34l-21 -146h-670q-2 -20 -3.5 -40t-1.5 -38q0 -131 64.5 -201.5t193.5 -70.5q96 0 165.5 19t116.5 37l27 -128 q-65 -35 -150.5 -54.5t-179.5 -19.5q-101 0 -180 27t-133.5 79t-83.5 127.5t-29 172.5zM305 622h474q2 15 3 29t1 28q0 53 -15 90t-40 60.5t-59 34t-71 10.5q-50 0 -94.5 -12t-82 -41.5t-67 -78t-49.5 -120.5zM288 1150l320 232h118l249 -232h-197l-128 117l-162 -117h-200z " />
<glyph unicode="&#xeb;" horiz-adv-x="1066" d="M82 386q0 25 2 51.5t6 54.5q19 129 65 227.5t115 165.5t157.5 101t191.5 34q74 0 138.5 -22.5t112 -65t75 -104t27.5 -139.5q0 -16 -1.5 -33t-3.5 -34l-21 -146h-670q-2 -20 -3.5 -40t-1.5 -38q0 -131 64.5 -201.5t193.5 -70.5q96 0 165.5 19t116.5 37l27 -128 q-65 -35 -150.5 -54.5t-179.5 -19.5q-101 0 -180 27t-133.5 79t-83.5 127.5t-29 172.5zM305 622h474q2 15 3 29t1 28q0 53 -15 90t-40 60.5t-59 34t-71 10.5q-50 0 -94.5 -12t-82 -41.5t-67 -78t-49.5 -120.5zM285 1151l19 176h207l-19 -176h-207zM752 1151l19 176h210 l-20 -176h-209z" />
<glyph unicode="&#xec;" horiz-adv-x="394" d="M14 0l145 1000h188l-145 -1000h-188zM-23 1393l211 60l177 -268l-141 -40z" />
<glyph unicode="&#xed;" horiz-adv-x="394" d="M14 0l145 1000h188l-145 -1000h-188zM192 1187l234 268l198 -60l-301 -248z" />
<glyph unicode="&#xee;" horiz-adv-x="394" d="M14 0l145 1000h188l-145 -1000h-188zM-42 1146l320 232h118l249 -232h-197l-128 117l-162 -117h-200z" />
<glyph unicode="&#xef;" horiz-adv-x="394" d="M14 0l145 1000h188l-145 -1000h-188zM-46 1146l19 176h207l-19 -176h-207zM421 1146l19 176h210l-20 -176h-209z" />
<glyph unicode="&#xf0;" horiz-adv-x="1142" d="M79 402q7 103 44 189.5t99 148t147 96t187 34.5q50 0 96.5 -10.5t87 -32.5t73 -55.5t54.5 -79.5q2 25 3 48t1 46q0 89 -14.5 158.5t-43.5 122.5l-233 -103l-45 102l204 93q-93 75 -239 75l40 146q114 0 208 -37t160 -106l213 97l49 -108l-190 -84q42 -73 63 -164.5 t21 -200.5q0 -42 -3 -85.5t-10 -89.5q-21 -144 -68.5 -259t-119.5 -194.5t-167 -122t-209 -42.5q-105 0 -183.5 35t-130 93.5t-75.5 134t-19 155.5zM277 356q0 -47 12.5 -88.5t38 -72t65.5 -48t94 -17.5q67 0 123.5 23.5t101.5 73t78.5 125.5t54.5 182q-24 54 -56.5 89.5 t-70 56.5t-80 29.5t-86.5 8.5q-60 0 -106.5 -23.5t-80 -64.5t-54.5 -96.5t-30 -119.5q-2 -15 -3 -29.5t-1 -28.5z" />
<glyph unicode="&#xf1;" horiz-adv-x="1156" d="M78 0l145 1000h166l2 -95q78 54 162.5 84.5t179.5 30.5q61 0 111 -12t86 -41.5t56 -78.5t20 -124q0 -23 -2 -48t-6 -54l-96 -662h-188l96 662q6 42 6 73q0 79 -36.5 109t-111.5 30q-78 0 -151.5 -32t-139.5 -80l-111 -762h-188zM295 1248q19 35 44 63t53 48t57 33t55 18 q16 3 33 3q53 0 94.5 -23.5t76.5 -51.5q25 -24 51.5 -33t44.5 -9q13 0 30 5.5t34 17.5t33.5 30t29.5 43l91 -80q-19 -36 -44 -64t-52.5 -48t-56 -32t-54.5 -16q-19 -4 -41 -4q-52 0 -91 23t-73 51q-28 23 -53 34.5t-42 9.5q-14 -1 -28 -4.5t-29 -13.5t-32 -28t-38 -46z" />
<glyph unicode="&#xf2;" horiz-adv-x="1142" d="M83 395q0 25 2 51t6 54q18 124 65.5 221t118 163.5t161.5 101t195 34.5q90 0 163.5 -28.5t126 -82t81.5 -131t29 -175.5q0 -25 -2 -50.5t-6 -52.5q-18 -125 -66 -222t-119.5 -163t-162.5 -100.5t-195 -34.5q-90 0 -163 28t-125 81.5t-80.5 130.5t-28.5 175zM270 390 q0 -71 16.5 -121t46.5 -82t72.5 -46.5t95.5 -14.5q60 0 114.5 21.5t98.5 67t75.5 116.5t45.5 169q5 29 6.5 56t1.5 52q0 71 -16.5 121.5t-47.5 82.5t-74 47t-95 15q-60 0 -114 -21.5t-97.5 -67t-74.5 -116.5t-45 -169q-9 -60 -9 -110zM344 1396l211 60l177 -268l-141 -40z " />
<glyph unicode="&#xf3;" horiz-adv-x="1142" d="M83 395q0 25 2 51t6 54q18 124 65.5 221t118 163.5t161.5 101t195 34.5q90 0 163.5 -28.5t126 -82t81.5 -131t29 -175.5q0 -25 -2 -50.5t-6 -52.5q-18 -125 -66 -222t-119.5 -163t-162.5 -100.5t-195 -34.5q-90 0 -163 28t-125 81.5t-80.5 130.5t-28.5 175zM270 390 q0 -71 16.5 -121t46.5 -82t72.5 -46.5t95.5 -14.5q60 0 114.5 21.5t98.5 67t75.5 116.5t45.5 169q5 29 6.5 56t1.5 52q0 71 -16.5 121.5t-47.5 82.5t-74 47t-95 15q-60 0 -114 -21.5t-97.5 -67t-74.5 -116.5t-45 -169q-9 -60 -9 -110zM559 1190l234 268l198 -60l-301 -248z " />
<glyph unicode="&#xf4;" horiz-adv-x="1142" d="M83 395q0 25 2 51t6 54q18 124 65.5 221t118 163.5t161.5 101t195 34.5q90 0 163.5 -28.5t126 -82t81.5 -131t29 -175.5q0 -25 -2 -50.5t-6 -52.5q-18 -125 -66 -222t-119.5 -163t-162.5 -100.5t-195 -34.5q-90 0 -163 28t-125 81.5t-80.5 130.5t-28.5 175zM270 390 q0 -71 16.5 -121t46.5 -82t72.5 -46.5t95.5 -14.5q60 0 114.5 21.5t98.5 67t75.5 116.5t45.5 169q5 29 6.5 56t1.5 52q0 71 -16.5 121.5t-47.5 82.5t-74 47t-95 15q-60 0 -114 -21.5t-97.5 -67t-74.5 -116.5t-45 -169q-9 -60 -9 -110zM325 1148l320 232h118l249 -232h-197 l-128 117l-162 -117h-200z" />
<glyph unicode="&#xf5;" horiz-adv-x="1142" d="M83 395q0 25 2 51t6 54q18 124 65.5 221t118 163.5t161.5 101t195 34.5q90 0 163.5 -28.5t126 -82t81.5 -131t29 -175.5q0 -25 -2 -50.5t-6 -52.5q-18 -125 -66 -222t-119.5 -163t-162.5 -100.5t-195 -34.5q-90 0 -163 28t-125 81.5t-80.5 130.5t-28.5 175zM270 390 q0 -71 16.5 -121t46.5 -82t72.5 -46.5t95.5 -14.5q60 0 114.5 21.5t98.5 67t75.5 116.5t45.5 169q5 29 6.5 56t1.5 52q0 71 -16.5 121.5t-47.5 82.5t-74 47t-95 15q-60 0 -114 -21.5t-97.5 -67t-74.5 -116.5t-45 -169q-9 -60 -9 -110zM286 1246q19 35 44 63t53 48t57 33 t55 18q16 3 33 3q53 0 94.5 -23.5t76.5 -51.5q25 -24 51.5 -33t44.5 -9q13 0 30 5.5t34 17.5t33.5 30t29.5 43l91 -80q-19 -36 -44 -64t-52.5 -48t-56 -32t-54.5 -16q-19 -4 -41 -4q-52 0 -91 23t-73 51q-28 23 -53 34.5t-42 9.5q-14 -1 -28 -4.5t-29 -13.5t-32 -28t-38 -46 z" />
<glyph unicode="&#xf6;" horiz-adv-x="1142" d="M83 395q0 25 2 51t6 54q18 124 65.5 221t118 163.5t161.5 101t195 34.5q90 0 163.5 -28.5t126 -82t81.5 -131t29 -175.5q0 -25 -2 -50.5t-6 -52.5q-18 -125 -66 -222t-119.5 -163t-162.5 -100.5t-195 -34.5q-90 0 -163 28t-125 81.5t-80.5 130.5t-28.5 175zM270 390 q0 -71 16.5 -121t46.5 -82t72.5 -46.5t95.5 -14.5q60 0 114.5 21.5t98.5 67t75.5 116.5t45.5 169q5 29 6.5 56t1.5 52q0 71 -16.5 121.5t-47.5 82.5t-74 47t-95 15q-60 0 -114 -21.5t-97.5 -67t-74.5 -116.5t-45 -169q-9 -60 -9 -110zM321 1149l19 176h207l-19 -176h-207z M788 1149l19 176h210l-20 -176h-209z" />
<glyph unicode="&#xf7;" horiz-adv-x="1023" d="M90 526l21 146h818l-21 -146h-818zM354 200l26 178h188l-26 -178h-188zM441 800l26 178h188l-26 -178h-188z" />
<glyph unicode="&#xf8;" horiz-adv-x="1167" d="M4 0l140 146q-61 99 -61 245q0 26 1.5 53t6.5 56q18 124 65.5 221t118 163.5t161.5 101t195 34.5q81 0 150 -23t120 -67l67 70h164l-156 -162q55 -96 55 -232q0 -26 -2 -52t-6 -54q-18 -125 -66 -222t-119.5 -163t-162.5 -100.5t-195 -34.5q-76 0 -141.5 20t-115.5 58 l-56 -58h-163zM270 391q0 -57 12 -102l499 517q-31 35 -74 51.5t-97 16.5q-60 0 -114 -21.5t-97.5 -67t-74.5 -116.5t-45 -169q-9 -60 -9 -109zM342 181q30 -29 70 -42t89 -13q60 0 114.5 21.5t98.5 67t75.5 116.5t45.5 169q4 29 6 54.5t2 48.5q0 25 -2 47t-6 42z" />
<glyph unicode="&#xf9;" horiz-adv-x="1156" d="M123 255q0 27 2.5 57.5t7.5 65.5l90 622h188l-90 -622q-4 -29 -6 -53t-2 -45q0 -87 35.5 -120.5t107.5 -33.5q79 0 153 31.5t139 81.5l111 761h188l-145 -1000h-166l2 127q-79 -69 -164.5 -108t-179.5 -39q-60 0 -110 13t-86 44.5t-55.5 84.5t-19.5 133zM350 1378l211 60 l177 -268l-141 -40z" />
<glyph unicode="&#xfa;" horiz-adv-x="1156" d="M123 255q0 27 2.5 57.5t7.5 65.5l90 622h188l-90 -622q-4 -29 -6 -53t-2 -45q0 -87 35.5 -120.5t107.5 -33.5q79 0 153 31.5t139 81.5l111 761h188l-145 -1000h-166l2 127q-79 -69 -164.5 -108t-179.5 -39q-60 0 -110 13t-86 44.5t-55.5 84.5t-19.5 133zM565 1172 l234 268l198 -60l-301 -248z" />
<glyph unicode="&#xfb;" horiz-adv-x="1156" d="M123 255q0 27 2.5 57.5t7.5 65.5l90 622h188l-90 -622q-4 -29 -6 -53t-2 -45q0 -87 35.5 -120.5t107.5 -33.5q79 0 153 31.5t139 81.5l111 761h188l-145 -1000h-166l2 127q-79 -69 -164.5 -108t-179.5 -39q-60 0 -110 13t-86 44.5t-55.5 84.5t-19.5 133zM331 1131 l320 232h118l249 -232h-197l-128 117l-162 -117h-200z" />
<glyph unicode="&#xfc;" horiz-adv-x="1156" d="M123 255q0 27 2.5 57.5t7.5 65.5l90 622h188l-90 -622q-4 -29 -6 -53t-2 -45q0 -87 35.5 -120.5t107.5 -33.5q79 0 153 31.5t139 81.5l111 761h188l-145 -1000h-166l2 127q-79 -69 -164.5 -108t-179.5 -39q-60 0 -110 13t-86 44.5t-55.5 84.5t-19.5 133zM327 1131l19 176 h207l-19 -176h-207zM794 1131l19 176h210l-20 -176h-209z" />
<glyph unicode="&#xfd;" horiz-adv-x="1009" d="M-10 -394l38 136q16 0 37 -4t44 -4q31 0 55.5 9t48 32.5t49 64.5t58.5 105l-204 1055h194l130 -799l371 799h194l-523 -1066q-46 -101 -88.5 -167.5t-87 -106.5t-93.5 -56t-107 -16q-32 0 -62 5t-54 13zM492 1172l234 268l198 -60l-301 -248z" />
<glyph unicode="&#xfe;" horiz-adv-x="1078" d="M-44 -400l261 1800h189l-71 -490q30 26 61 46.5t66 34.5t77.5 21.5t95.5 7.5q76 0 138 -28t106 -80.5t67.5 -126.5t23.5 -167q0 -56 -9 -116q-18 -121 -60.5 -218t-105 -164.5t-141.5 -103.5t-170 -36q-50 0 -89 7.5t-71 21.5t-58 34.5t-50 46.5l-71 -490h-189zM233 206 q38 -35 90 -57.5t118 -22.5q140 0 220 97t106 279q5 34 7.5 64t2.5 58q0 126 -54.5 188t-173.5 62q-63 0 -123 -22.5t-108 -57.5z" />
<glyph unicode="&#xff;" horiz-adv-x="1009" d="M-10 -394l38 136q16 0 37 -4t44 -4q31 0 55.5 9t48 32.5t49 64.5t58.5 105l-204 1055h194l130 -799l371 799h194l-523 -1066q-46 -101 -88.5 -167.5t-87 -106.5t-93.5 -56t-107 -16q-32 0 -62 5t-54 13zM254 1131l19 176h207l-19 -176h-207zM721 1131l19 176h210 l-20 -176h-209z" />
<glyph unicode="&#x131;" horiz-adv-x="394" d="M14 0l145 1000h188l-145 -1000h-188z" />
<glyph unicode="&#x152;" horiz-adv-x="1698" d="M102 547q0 32 2.5 65t7.5 68q24 162 87.5 288.5t161 214t226 133.5t282.5 46h31q15 0 31 -2h769l-21 -146h-581l-65 -444h519l-21 -146h-519l-69 -478h581l-21 -146h-756q-13 -2 -32 -3t-44 -1q-133 0 -238.5 38t-179 109t-112.5 173.5t-39 230.5zM291 558 q0 -99 26.5 -176t77.5 -130.5t126 -81.5t171 -28q14 0 30 1.5t33 5.5l154 1060q-15 3 -29.5 5t-31.5 2q-107 0 -199.5 -37.5t-164 -107.5t-119 -169t-65.5 -222q-9 -65 -9 -122z" />
<glyph unicode="&#x153;" horiz-adv-x="1819" d="M91 395q0 25 2 51t6 54q18 124 65.5 221t118 163.5t161 101t195.5 34.5q116 0 206 -47t139 -135q72 89 171 135.5t218 46.5q74 0 138.5 -22.5t112 -65t75 -104t27.5 -139.5q0 -16 -1.5 -33t-3.5 -34l-22 -146h-670q-2 -20 -3.5 -39t-1.5 -37q0 -132 64.5 -203t194.5 -71 q96 0 165.5 19t116.5 37l26 -128q-64 -35 -149.5 -54.5t-179.5 -19.5q-134 0 -230.5 46.5t-145.5 134.5q-75 -88 -176.5 -134.5t-221.5 -46.5q-90 0 -163 28t-125 81.5t-80.5 130.5t-28.5 175zM278 390q0 -71 16.5 -121t46.5 -82t72.5 -46.5t95.5 -14.5q60 0 114 21.5 t98.5 67t76 116.5t45.5 169q5 29 6.5 56t1.5 52q0 71 -16.5 121.5t-47.5 82.5t-74 47t-95 15q-60 0 -114 -21.5t-97.5 -67t-74.5 -116.5t-45 -169q-9 -60 -9 -110zM1058 622h474q2 16 3 30t1 28q0 52 -15 89t-40 60.5t-58.5 34t-70.5 10.5q-50 0 -94.5 -12t-82 -41.5 t-67 -78t-50.5 -120.5z" />
<glyph unicode="&#x178;" d="M176 1360h193l208 -686l409 686h193l-537 -875l-71 -485h-188l71 491zM366 1470l19 176h207l-19 -176h-207zM833 1470l19 176h210l-20 -176h-209z" />
<glyph unicode="&#x2c6;" horiz-adv-x="812" d="M161 1148l320 232h118l249 -232h-197l-128 117l-162 -117h-200z" />
<glyph unicode="&#x2da;" horiz-adv-x="612" d="M220 1422q6 41 27 76.5t52.5 61.5t71 41t81.5 15q40 0 75 -15.5t59 -42t35.5 -61.5t5.5 -75q-6 -42 -27 -77.5t-52.5 -61.5t-71 -40.5t-81.5 -14.5q-41 0 -75.5 15t-58.5 41.5t-35.5 61.5t-5.5 76zM342 1422q-2 -16 2.5 -30.5t14 -25t23.5 -16.5t30 -6q35 0 61.5 23 t31.5 55q5 34 -15 56t-55 22q-16 0 -32 -6t-28.5 -16.5t-21.5 -25t-11 -30.5z" />
<glyph unicode="&#x2dc;" horiz-adv-x="925" d="M178 1224q19 35 44 63t53 48t57 33t55 18q16 3 33 3q53 0 94.5 -23.5t76.5 -51.5q25 -24 51.5 -33t44.5 -9q13 0 30 5.5t34 17.5t33.5 30t29.5 43l91 -80q-19 -36 -44 -64t-52.5 -48t-56 -32t-54.5 -16q-19 -4 -41 -4q-52 0 -91 23t-73 51q-28 23 -53 34.5t-42 9.5 q-14 -1 -28 -4.5t-29 -13.5t-32 -28t-38 -46z" />
<glyph unicode="&#x2000;" horiz-adv-x="930" />
<glyph unicode="&#x2001;" horiz-adv-x="1860" />
<glyph unicode="&#x2002;" horiz-adv-x="930" />
<glyph unicode="&#x2003;" horiz-adv-x="1860" />
<glyph unicode="&#x2004;" horiz-adv-x="620" />
<glyph unicode="&#x2005;" horiz-adv-x="465" />
<glyph unicode="&#x2006;" horiz-adv-x="310" />
<glyph unicode="&#x2007;" horiz-adv-x="310" />
<glyph unicode="&#x2008;" horiz-adv-x="232" />
<glyph unicode="&#x2009;" horiz-adv-x="372" />
<glyph unicode="&#x200a;" horiz-adv-x="103" />
<glyph unicode="&#x2010;" horiz-adv-x="748" d="M102 606l24 166h543l-24 -166h-543z" />
<glyph unicode="&#x2011;" horiz-adv-x="748" d="M102 606l24 166h543l-24 -166h-543z" />
<glyph unicode="&#x2012;" horiz-adv-x="748" d="M102 606l24 166h543l-24 -166h-543z" />
<glyph unicode="&#x2013;" horiz-adv-x="1000" d="M28 586l21 146h942l-22 -146h-941z" />
<glyph unicode="&#x2014;" horiz-adv-x="1691" d="M79 586l22 146h1531l-21 -146h-1532z" />
<glyph unicode="&#x2018;" horiz-adv-x="469" d="M130 934l237 468l132 -20l-155 -448h-214z" />
<glyph unicode="&#x2019;" horiz-adv-x="469" d="M133 954l155 448h214l-238 -468z" />
<glyph unicode="&#x201a;" horiz-adv-x="561" d="M-10 -272l134 448h216l-217 -468z" />
<glyph unicode="&#x201c;" horiz-adv-x="774" d="M675.008 1382.06l-154.99 -447.973h-213.987l237.985 467.971zM980.008 1382.06l-154.99 -447.973h-213.987l237.985 467.971z" />
<glyph unicode="&#x201d;" horiz-adv-x="774" d="M133 954l155 448h214l-238 -468zM437 954l155 448h214l-238 -468z" />
<glyph unicode="&#x201e;" horiz-adv-x="840" d="M-10 -272l134 448h216l-217 -468zM308 -272l134 448h216l-217 -468z" />
<glyph unicode="&#x2022;" horiz-adv-x="677" d="M145 638v16q0 8 2 16q6 43 26 81t50 65.5t68.5 43.5t83.5 16q40 0 72.5 -13.5t55 -37t35 -55.5t12.5 -69v-15q0 -8 -2 -16q-6 -44 -26 -81t-51 -64.5t-70.5 -43t-85.5 -15.5q-39 0 -70.5 13t-53.5 36t-34 54.5t-12 68.5z" />
<glyph unicode="&#x2026;" horiz-adv-x="1483" d="M70 0l28 196h217l-28 -196h-217zM527 0l28 196h217l-28 -196h-217zM994 0l28 196h217l-28 -196h-217z" />
<glyph unicode="&#x202f;" horiz-adv-x="372" />
<glyph unicode="&#x2039;" horiz-adv-x="624" d="M76 428l12 84l393 406l90 -110l-288 -336l192 -320l-121 -110z" />
<glyph unicode="&#x203a;" horiz-adv-x="624" d="M17 152l286 336l-191 320l119 110l278 -386l-12 -84l-393 -406z" />
<glyph unicode="&#x2044;" horiz-adv-x="1068" d="M-70 0l1079 1360h150l-1076 -1360h-153z" />
<glyph unicode="&#x205f;" horiz-adv-x="465" />
<glyph unicode="&#x2074;" horiz-adv-x="693" d="M68 816l11 76l450 486h137l-68 -464h92l-15 -98h-91l-21 -146h-128l21 146h-388zM223 914h248l46 318z" />
<glyph unicode="&#x20ac;" d="M42 452l21 146h190q3 40 9 84q2 14 4 25.5t5 24.5h-189l22 146h202q36 116 92 209t128 158t159 100t186 35q48 0 87 -5.5t71 -14.5t58.5 -21t49.5 -25l-71 -130q-44 23 -96.5 36.5t-119.5 13.5q-57 0 -109.5 -21t-98.5 -64.5t-84.5 -111t-65.5 -159.5h515l-21 -146h-527 q-3 -12 -5 -24.5t-4 -25.5q-3 -23 -5.5 -43.5t-4.5 -40.5h526l-21 -146h-508q10 -169 82.5 -247.5t191.5 -78.5q40 0 75.5 5.5t67 14.5t58.5 19.5t50 20.5l21 -128q-56 -33 -131.5 -55.5t-183.5 -22.5q-92 0 -166.5 33t-128.5 94t-85.5 148.5t-37.5 196.5h-208z" />
<glyph unicode="&#x2122;" horiz-adv-x="1351" d="M162 1272l12 88h495l-13 -88h-191l-59 -406h-108l59 406h-195zM707 866l71 494h143l109 -245l183 245h134l-72 -494h-109l53 361l-160 -217v-2h-90v2l-98 223l-53 -367h-111z" />
<glyph unicode="&#xe000;" horiz-adv-x="1000" d="M0 1000h1000v-1000h-1000v1000z" />
<glyph unicode="&#xfb01;" horiz-adv-x="1198" d="M108 866l37 134h129l5 34q15 107 55.5 182.5t102 123t142.5 69t178 21.5q37 0 76 -2.5t75.5 -6.5t70.5 -9.5t61 -11.5l-19 -136q-25 4 -57.5 7.5t-69 6.5t-75 4.5t-76.5 1.5q-122 0 -189.5 -57.5t-86.5 -192.5l-5 -34h283l-19 -134h-283l-126 -866h-188l125 866h-146z M731 0l145 1000h188l-145 -1000h-188z" />
<glyph unicode="&#xfb02;" horiz-adv-x="1274" d="M108 866l37 134h129l5 34q15 107 55.5 182.5t102 123t142.5 69t178 21.5q37 0 76 -2.5t75.5 -6.5t70.5 -9.5t61 -11.5h162l-203 -1400h-189l184 1267q-51 7 -117.5 12t-133.5 5q-122 0 -189.5 -57.5t-86.5 -192.5l-5 -34h283l-19 -134h-283l-126 -866h-188l125 866h-146z " />
<glyph unicode="&#xfb03;" horiz-adv-x="2041" d="M1578 0l145 1000h188l-145 -1000h-188zM1746 1226l26 176h206l-25 -176h-207zM852 854l39 146h119l9 62q16 109 49.5 178.5t83.5 109.5t115 55t143 15q24 0 49.5 -2.5t50.5 -6.5t46.5 -9.5t38.5 -11.5l-26 -136q-14 3 -33 6.5t-40.5 6.5t-44 5t-43.5 2q-44 0 -77.5 -11 t-58 -36.5t-40.5 -66t-25 -98.5l-9 -62h283l-21 -146h-283l-124 -854h-188l124 854h-137zM112 854l39 146h119l9 62q16 109 49.5 178.5t83.5 109.5t115 55t143 15q24 0 49.5 -2.5t50.5 -6.5t46.5 -9.5t38.5 -11.5l-26 -136q-14 3 -33 6.5t-40.5 6.5t-44 5t-43.5 2 q-44 0 -77.5 -11t-58 -36.5t-40.5 -66t-25 -98.5l-9 -62h283l-21 -146h-283l-124 -854h-188l124 854h-137z" />
<glyph unicode="&#xfb04;" horiz-adv-x="2042" d="M1578 0l203 1400h188l-203 -1400h-188zM852 854l39 146h119l9 62q16 109 49.5 178.5t83.5 109.5t115 55t143 15q24 0 49.5 -2.5t50.5 -6.5t46.5 -9.5t38.5 -11.5l-26 -136q-14 3 -33 6.5t-40.5 6.5t-44 5t-43.5 2q-44 0 -77.5 -11t-58 -36.5t-40.5 -66t-25 -98.5l-9 -62 h283l-21 -146h-283l-124 -854h-188l124 854h-137zM112 854l39 146h119l9 62q16 109 49.5 178.5t83.5 109.5t115 55t143 15q24 0 49.5 -2.5t50.5 -6.5t46.5 -9.5t38.5 -11.5l-26 -136q-14 3 -33 6.5t-40.5 6.5t-44 5t-43.5 2q-44 0 -77.5 -11t-58 -36.5t-40.5 -66t-25 -98.5 l-9 -62h283l-21 -146h-283l-124 -854h-188l124 854h-137z" />
</font>
</defs>
</svg>
